  0
SECTION
  2
HEADER
  9
$ACADVER
  1
AC1015
  9
$ACADMAINTVER
 70
     6
  9
$DWGCODEPAGE
  3
ANSI_1252
  9
$INSBASE
 10
0.0
 20
0.0
 30
0.0
  9
$EXTMIN
 10
-210.0000000000001
 20
0.0
 30
0.0
  9
$EXTMAX
 10
0.0
 20
297.0000000000001
 30
0.0
  9
$LIMMIN
 10
0.0
 20
0.0
  9
$LIMMAX
 10
12.0
 20
9.0
  9
$ORTHOMODE
 70
     0
  9
$REGENMODE
 70
     1
  9
$FILLMODE
 70
     1
  9
$QTEXTMODE
 70
     0
  9
$MIRRTEXT
 70
     1
  9
$LTSCALE
 40
1.0
  9
$ATTMODE
 70
     1
  9
$TEXTSIZE
 40
0.2
  9
$TRACEWID
 40
0.05
  9
$TEXTSTYLE
  7
Standard
  9
$CLAYER
  8
0
  9
$CELTYPE
  6
ByLayer
  9
$CECOLOR
 62
   256
  9
$CELTSCALE
 40
1.0
  9
$DISPSILH
 70
     0
  9
$DIMSCALE
 40
1.0
  9
$DIMASZ
 40
0.18
  9
$DIMEXO
 40
0.0625
  9
$DIMDLI
 40
0.38
  9
$DIMRND
 40
0.0
  9
$DIMDLE
 40
0.0
  9
$DIMEXE
 40
0.18
  9
$DIMTP
 40
0.0
  9
$DIMTM
 40
0.0
  9
$DIMTXT
 40
0.18
  9
$DIMCEN
 40
0.09
  9
$DIMTSZ
 40
0.0
  9
$DIMTOL
 70
     0
  9
$DIMLIM
 70
     0
  9
$DIMTIH
 70
     1
  9
$DIMTOH
 70
     1
  9
$DIMSE1
 70
     0
  9
$DIMSE2
 70
     0
  9
$DIMTAD
 70
     0
  9
$DIMZIN
 70
     0
  9
$DIMBLK
  1

  9
$DIMASO
 70
     1
  9
$DIMSHO
 70
     1
  9
$DIMPOST
  1

  9
$DIMAPOST
  1

  9
$DIMALT
 70
     0
  9
$DIMALTD
 70
     2
  9
$DIMALTF
 40
25.4
  9
$DIMLFAC
 40
1.0
  9
$DIMTOFL
 70
     0
  9
$DIMTVP
 40
0.0
  9
$DIMTIX
 70
     0
  9
$DIMSOXD
 70
     0
  9
$DIMSAH
 70
     0
  9
$DIMBLK1
  1

  9
$DIMBLK2
  1

  9
$DIMSTYLE
  2
Standard
  9
$DIMCLRD
 70
     0
  9
$DIMCLRE
 70
     0
  9
$DIMCLRT
 70
     0
  9
$DIMTFAC
 40
1.0
  9
$DIMGAP
 40
0.09
  9
$DIMJUST
 70
     0
  9
$DIMSD1
 70
     0
  9
$DIMSD2
 70
     0
  9
$DIMTOLJ
 70
     1
  9
$DIMTZIN
 70
     0
  9
$DIMALTZ
 70
     0
  9
$DIMALTTZ
 70
     0
  9
$DIMUPT
 70
     0
  9
$DIMDEC
 70
     4
  9
$DIMTDEC
 70
     4
  9
$DIMALTU
 70
     2
  9
$DIMALTTD
 70
     2
  9
$DIMTXSTY
  7
Standard
  9
$DIMAUNIT
 70
     0
  9
$DIMADEC
 70
     0
  9
$DIMALTRND
 40
0.0
  9
$DIMAZIN
 70
     0
  9
$DIMDSEP
 70
    46
  9
$DIMATFIT
 70
     3
  9
$DIMFRAC
 70
     0
  9
$DIMLDRBLK
  1

  9
$DIMLUNIT
 70
     2
  9
$DIMLWD
 70
    -2
  9
$DIMLWE
 70
    -2
  9
$DIMTMOVE
 70
     0
  9
$LUNITS
 70
     2
  9
$LUPREC
 70
     4
  9
$SKETCHINC
 40
0.1
  9
$FILLETRAD
 40
0.5
  9
$AUNITS
 70
     0
  9
$AUPREC
 70
     0
  9
$MENU
  1
.
  9
$ELEVATION
 40
0.0
  9
$PELEVATION
 40
0.0
  9
$THICKNESS
 40
0.0
  9
$LIMCHECK
 70
     0
  9
$CHAMFERA
 40
0.5
  9
$CHAMFERB
 40
0.5
  9
$CHAMFERC
 40
1.0
  9
$CHAMFERD
 40
0.0
  9
$SKPOLY
 70
     0
  9
$TDCREATE
 40
2456997.441038519
  9
$TDUCREATE
 40
2456997.399371852
  9
$TDUPDATE
 40
2456997.441038519
  9
$TDUUPDATE
 40
2456997.399371852
  9
$TDINDWG
 40
0.0000000116
  9
$TDUSRTIMER
 40
0.0000000116
  9
$USRTIMER
 70
     1
  9
$ANGBASE
 50
0.0
  9
$ANGDIR
 70
     0
  9
$PDMODE
 70
     0
  9
$PDSIZE
 40
0.0
  9
$PLINEWID
 40
0.0
  9
$SPLFRAME
 70
     0
  9
$SPLINETYPE
 70
     6
  9
$SPLINESEGS
 70
     8
  9
$HANDSEED
  5
200
  9
$SURFTAB1
 70
     6
  9
$SURFTAB2
 70
     6
  9
$SURFTYPE
 70
     6
  9
$SURFU
 70
     6
  9
$SURFV
 70
     6
  9
$UCSBASE
  2

  9
$UCSNAME
  2

  9
$UCSORG
 10
0.0
 20
0.0
 30
0.0
  9
$UCSXDIR
 10
1.0
 20
0.0
 30
0.0
  9
$UCSYDIR
 10
0.0
 20
1.0
 30
0.0
  9
$UCSORTHOREF
  2

  9
$UCSORTHOVIEW
 70
     0
  9
$UCSORGTOP
 10
0.0
 20
0.0
 30
0.0
  9
$UCSORGBOTTOM
 10
0.0
 20
0.0
 30
0.0
  9
$UCSORGLEFT
 10
0.0
 20
0.0
 30
0.0
  9
$UCSORGRIGHT
 10
0.0
 20
0.0
 30
0.0
  9
$UCSORGFRONT
 10
0.0
 20
0.0
 30
0.0
  9
$UCSORGBACK
 10
0.0
 20
0.0
 30
0.0
  9
$PUCSBASE
  2

  9
$PUCSNAME
  2

  9
$PUCSORG
 10
0.0
 20
0.0
 30
0.0
  9
$PUCSXDIR
 10
1.0
 20
0.0
 30
0.0
  9
$PUCSYDIR
 10
0.0
 20
1.0
 30
0.0
  9
$PUCSORTHOREF
  2

  9
$PUCSORTHOVIEW
 70
     0
  9
$PUCSORGTOP
 10
0.0
 20
0.0
 30
0.0
  9
$PUCSORGBOTTOM
 10
0.0
 20
0.0
 30
0.0
  9
$PUCSORGLEFT
 10
0.0
 20
0.0
 30
0.0
  9
$PUCSORGRIGHT
 10
0.0
 20
0.0
 30
0.0
  9
$PUCSORGFRONT
 10
0.0
 20
0.0
 30
0.0
  9
$PUCSORGBACK
 10
0.0
 20
0.0
 30
0.0
  9
$USERI1
 70
     0
  9
$USERI2
 70
     0
  9
$USERI3
 70
     0
  9
$USERI4
 70
     0
  9
$USERI5
 70
     0
  9
$USERR1
 40
18.1
  9
$USERR2
 40
0.0
  9
$USERR3
 40
0.0
  9
$USERR4
 40
0.0
  9
$USERR5
 40
0.0
  9
$WORLDVIEW
 70
     1
  9
$SHADEDGE
 70
     3
  9
$SHADEDIF
 70
    70
  9
$TILEMODE
 70
     1
  9
$MAXACTVP
 70
    64
  9
$PINSBASE
 10
0.0
 20
0.0
 30
0.0
  9
$PLIMCHECK
 70
     0
  9
$PEXTMIN
 10
1.00000000000000E+20
 20
1.00000000000000E+20
 30
1.00000000000000E+20
  9
$PEXTMAX
 10
-1.00000000000000E+20
 20
-1.00000000000000E+20
 30
-1.00000000000000E+20
  9
$PLIMMIN
 10
0.0
 20
0.0
  9
$PLIMMAX
 10
12.0
 20
9.0
  9
$UNITMODE
 70
     0
  9
$VISRETAIN
 70
     1
  9
$PLINEGEN
 70
     0
  9
$PSLTSCALE
 70
     1
  9
$TREEDEPTH
 70
  3020
  9
$CMLSTYLE
  2
Standard
  9
$CMLJUST
 70
     0
  9
$CMLSCALE
 40
1.0
  9
$PROXYGRAPHICS
 70
     1
  9
$MEASUREMENT
 70
     1
  9
$CELWEIGHT
370
    -1
  9
$ENDCAPS
280
     0
  9
$JOINSTYLE
280
     0
  9
$LWDISPLAY
290
     0
  9
$INSUNITS
 70
     4
  9
$HYPERLINKBASE
  1

  9
$STYLESHEET
  1

  9
$XEDIT
290
     1
  9
$CEPSNTYPE
380
     0
  9
$PSTYLEMODE
290
     1
  9
$FINGERPRINTGUID
  2
{C2B8F3D9-6803-4D60-A339-7B04F635181C}
  9
$VERSIONGUID
  2
{FAEB1C32-E019-11D5-929B-00C0DF256EC4}
  9
$EXTNAMES
290
     1
  9
$PSVPSCALE
 40
0.0
  9
$OLESTARTUP
290
     0
  0
ENDSEC
  0
SECTION
  2
CLASSES
  0
CLASS
  1
ACDBDICTIONARYWDFLT
  2
AcDbDictionaryWithDefault
  3
ObjectDBX Classes
 90
        0
280
     0
281
     0
  0
CLASS
  1
VISUALSTYLE
  2
AcDbVisualStyle
  3
ObjectDBX Classes
 90
     4095
280
     0
281
     0
  0
CLASS
  1
MATERIAL
  2
AcDbMaterial
  3
ObjectDBX Classes
 90
     1153
280
     0
281
     0
  0
CLASS
  1
DICTIONARYVAR
  2
AcDbDictionaryVar
  3
ObjectDBX Classes
 90
        0
280
     0
281
     0
  0
CLASS
  1
ACDBPLACEHOLDER
  2
AcDbPlaceHolder
  3
ObjectDBX Classes
 90
        0
280
     0
281
     0
  0
CLASS
  1
LAYOUT
  2
AcDbLayout
  3
ObjectDBX Classes
 90
        0
280
     0
281
     0
  0
ENDSEC
  0
SECTION
  2
TABLES
  0
TABLE
  2
VPORT
  5
8
330
0
100
AcDbSymbolTable
 70
     1
  0
VPORT
  5
29
330
8
100
AcDbSymbolTableRecord
100
AcDbViewportTableRecord
  2
*Active
 70
     0
 10
0.0
 20
0.0
 11
1.0
 21
1.0
 12
-105.0000000000001
 22
148.5000000000001
 13
0.0
 23
0.0
 14
0.5
 24
0.5
 15
0.5
 25
0.5
 16
0.0
 26
0.0
 36
1.0
 17
0.0
 27
0.0
 37
0.0
 40
326.7000000000002
 41
1.60267857142857
 42
50.0
 43
0.0
 44
0.0
 50
0.0
 51
0.0
 71
     0
 72
   100
 73
     1
 74
     3
 75
     0
 76
     0
 77
     0
 78
     0
281
     0
 65
     1
110
0.0
120
0.0
130
0.0
111
1.0
121
0.0
131
0.0
112
0.0
122
1.0
132
0.0
 79
     0
146
0.0
  0
ENDTAB
  0
TABLE
  2
LTYPE
  5
5
330
0
100
AcDbSymbolTable
 70
     8
  0
LTYPE
  5
14
330
5
100
AcDbSymbolTableRecord
100
AcDbLinetypeTableRecord
  2
ByBlock
 70
     0
  3

 72
    65
 73
     0
 40
0.0
  0
LTYPE
  5
15
330
5
100
AcDbSymbolTableRecord
100
AcDbLinetypeTableRecord
  2
ByLayer
 70
     0
  3

 72
    65
 73
     0
 40
0.0
  0
LTYPE
  5
16
330
5
100
AcDbSymbolTableRecord
100
AcDbLinetypeTableRecord
  2
Continuous
 70
     0
  3
Solid line
 72
    65
 73
     0
 40
0.0
  0
LTYPE
  5
3F
330
5
100
AcDbSymbolTableRecord
100
AcDbLinetypeTableRecord
  2
DASHED
 70
     0
  3
Dashed
 72
    65
 73
     2
 40
15.0
 49
7.0
 74
     0
 49
-8.0
 74
     0
  0
LTYPE
  5
40
330
5
100
AcDbSymbolTableRecord
100
AcDbLinetypeTableRecord
  2
DOTTED
 70
     0
  3
Dotted
 72
    65
 73
     2
 40
1.0
 49
0.0
 74
     0
 49
-1.0
 74
     0
  0
LTYPE
  5
41
330
5
100
AcDbSymbolTableRecord
100
AcDbLinetypeTableRecord
  2
DOT_CENTER
 70
     0
  3
Dot_Center
 72
    65
 73
     4
 40
14.0
 49
12.0
 74
     0
 49
-1.0
 74
     0
 49
0.0
 74
     0
 49
-1.0
 74
     0
  0
LTYPE
  5
42
330
5
100
AcDbSymbolTableRecord
100
AcDbLinetypeTableRecord
  2
LONG_DASHED
 70
     0
  3
Long_Dashed
 72
    65
 73
     2
 40
15.0
 49
10.0
 74
     0
 49
-5.0
 74
     0
  0
LTYPE
  5
43
330
5
100
AcDbSymbolTableRecord
100
AcDbLinetypeTableRecord
  2
DASH_CENTER
 70
     0
  3
Dash_Center
 72
    65
 73
     4
 40
14.0
 49
11.0
 74
     0
 49
-1.0
 74
     0
 49
1.0
 74
     0
 49
-1.0
 74
     0
  0
LTYPE
  5
44
330
5
100
AcDbSymbolTableRecord
100
AcDbLinetypeTableRecord
  2
PHANTOM
 70
     0
  3
Phantom
 72
    65
 73
     6
 40
13.0
 49
10.0
 74
     0
 49
-1.0
 74
     0
 49
0.0
 74
     0
 49
-1.0
 74
     0
 49
0.0
 74
     0
 49
-1.0
 74
     0
  0
LTYPE
  5
45
330
5
100
AcDbSymbolTableRecord
100
AcDbLinetypeTableRecord
  2
CENTER_DASH_DASH
 70
     0
  3
Center_Dash_Dash
 72
    65
 73
     6
 40
14.0
 49
9.0
 74
     0
 49
-1.0
 74
     0
 49
1.0
 74
     0
 49
-1.0
 74
     0
 49
1.0
 74
     0
 49
-1.0
 74
     0
  0
ENDTAB
  0
TABLE
  2
LAYER
  5
2
330
0
100
AcDbSymbolTable
 70
     3
  0
LAYER
  5
10
330
2
100
AcDbSymbolTableRecord
100
AcDbLayerTableRecord
  2
0
 70
     0
 62
     7
  6
Continuous
370
    -3
390
F
  0
LAYER
  5
46
330
2
100
AcDbSymbolTableRecord
100
AcDbLayerTableRecord
  2
1
 70
     0
 62
     7
  6
Continuous
370
    -3
390
F
  0
LAYER
  5
47
330
2
100
AcDbSymbolTableRecord
100
AcDbLayerTableRecord
  2
2
 70
     0
 62
     7
  6
Continuous
370
    -3
390
F
  0
ENDTAB
  0
TABLE
  2
STYLE
  5
3
330
0
100
AcDbSymbolTable
 70
     4
  0
STYLE
  5
11
330
3
100
AcDbSymbolTableRecord
100
AcDbTextStyleTableRecord
  2
Standard
 70
     0
 40
0.0
 41
1.0
 50
0.0
 71
     0
 42
0.2
  3
txt
  4

  0
STYLE
  5
9C
330
3
100
AcDbSymbolTableRecord
100
AcDbTextStyleTableRecord
  2
CONVERTER_11
 70
     0
 40
0.0
 41
1.2
 50
0.0
 71
     0
 42
0.2
  3
ARIAL.TTF
  4

  0
STYLE
  5
A1
330
3
100
AcDbSymbolTableRecord
100
AcDbTextStyleTableRecord
  2
CONVERTER_12
 70
     0
 40
0.0
 41
1.38
 50
0.0
 71
     0
 42
0.2
  3
ARIAL.TTF
  4

  0
STYLE
  5
1AD
330
3
100
AcDbSymbolTableRecord
100
AcDbTextStyleTableRecord
  2
CONVERTER_13
 70
     0
 40
0.0
 41
0.95
 50
0.0
 71
     0
 42
0.2
  3
simplex.shx
  4

  0
ENDTAB
  0
TABLE
  2
VIEW
  5
6
330
0
100
AcDbSymbolTable
 70
     0
  0
ENDTAB
  0
TABLE
  2
UCS
  5
7
330
0
100
AcDbSymbolTable
 70
     0
  0
ENDTAB
  0
TABLE
  2
APPID
  5
9
330
0
100
AcDbSymbolTable
 70
     1
  0
APPID
  5
12
330
9
100
AcDbSymbolTableRecord
100
AcDbRegAppTableRecord
  2
ACAD
 70
     0
  0
ENDTAB
  0
TABLE
  2
DIMSTYLE
  5
A
330
0
100
AcDbSymbolTable
 70
     5
100
AcDbDimStyleTable
  0
DIMSTYLE
105
27
330
A
100
AcDbSymbolTableRecord
100
AcDbDimStyleTableRecord
  2
Standard
 70
     0
178
     0
340
11
  0
DIMSTYLE
105
1B1
102
{ACAD_REACTORS
330
1B2
102
}
330
A
100
AcDbSymbolTableRecord
100
AcDbDimStyleTableRecord
  2
ME10_DIM_10
 70
     0
 41
3.0
 42
0.5
 44
1.0
 73
     0
 74
     0
 77
     1
 78
     8
140
3.0
147
2.0
172
     1
173
     1
174
     1
175
     1
176
     2
177
     2
271
     2
178
     4
271
     2
340
1AD
  0
DIMSTYLE
105
1BC
102
{ACAD_REACTORS
330
1BD
102
}
330
A
100
AcDbSymbolTableRecord
100
AcDbDimStyleTableRecord
  2
ME10_DIM_11
 70
     0
 41
3.0
 42
0.5
 44
1.0
 73
     0
 74
     0
 77
     1
 78
     8
140
3.0
147
2.0
172
     1
173
     1
174
     1
175
     1
176
     2
177
     2
271
     2
178
     4
271
     2
340
1AD
  0
DIMSTYLE
105
1C7
102
{ACAD_REACTORS
330
1C8
102
}
330
A
100
AcDbSymbolTableRecord
100
AcDbDimStyleTableRecord
  2
ME10_DIM_12
 70
     0
 41
3.0
 42
0.5
 44
1.0
 73
     0
 74
     0
 77
     1
 78
     8
140
3.0
147
2.0
172
     1
173
     1
174
     1
175
     1
176
     2
177
     2
271
     2
178
     4
271
     2
340
1AD
  0
DIMSTYLE
105
1D3
102
{ACAD_REACTORS
330
1D4
102
}
330
A
100
AcDbSymbolTableRecord
100
AcDbDimStyleTableRecord
  2
ME10_DIM_13
 70
     0
 41
3.0
 42
0.5
 44
1.0
 77
     1
 78
     8
140
3.0
147
2.0
172
     1
173
     1
174
     1
175
     1
176
     2
177
     2
271
     2
178
     4
271
     2
340
1AD
  0
ENDTAB
  0
TABLE
  2
BLOCK_RECORD
  5
1
330
0
100
AcDbSymbolTable
 70
     7
  0
BLOCK_RECORD
  5
1F
330
1
100
AcDbSymbolTableRecord
100
AcDbBlockTableRecord
  2
*Model_Space
340
22
  0
BLOCK_RECORD
  5
1B
330
1
100
AcDbSymbolTableRecord
100
AcDbBlockTableRecord
  2
*Paper_Space
340
1E
  0
BLOCK_RECORD
  5
23
330
1
100
AcDbSymbolTableRecord
100
AcDbBlockTableRecord
  2
*Paper_Space0
340
26
  0
BLOCK_RECORD
  5
48
330
1
100
AcDbSymbolTableRecord
100
AcDbBlockTableRecord
  2
_formato_A4
340
0
102
{BLKREFS
331
4C
102
}
  0
BLOCK_RECORD
  5
4B
330
1
100
AcDbSymbolTableRecord
100
AcDbBlockTableRecord
  2
A4
340
0
102
{BLKREFS
331
4F
102
}
  0
BLOCK_RECORD
  5
1A7
330
1
100
AcDbSymbolTableRecord
100
AcDbBlockTableRecord
  2
*D3
340
0
  0
BLOCK_RECORD
  5
1B3
330
1
100
AcDbSymbolTableRecord
100
AcDbBlockTableRecord
  2
*D4
340
0
  0
BLOCK_RECORD
  5
1BE
330
1
100
AcDbSymbolTableRecord
100
AcDbBlockTableRecord
  2
*D5
340
0
  0
BLOCK_RECORD
  5
1C9
330
1
100
AcDbSymbolTableRecord
100
AcDbBlockTableRecord
  2
*D6
340
0
  0
ENDTAB
  0
ENDSEC
  0
SECTION
  2
BLOCKS
  0
BLOCK
  5
20
330
1F
100
AcDbEntity
  8
0
100
AcDbBlockBegin
  2
*Model_Space
 70
     0
 10
0.0
 20
0.0
 30
0.0
  3
*Model_Space
  1

  0
ENDBLK
  5
21
330
1F
100
AcDbEntity
  8
0
100
AcDbBlockEnd
  0
BLOCK
  5
1C
330
1B
100
AcDbEntity
 67
     1
  8
0
100
AcDbBlockBegin
  2
*Paper_Space
 70
     0
 10
0.0
 20
0.0
 30
0.0
  3
*Paper_Space
  1

  0
ENDBLK
  5
1D
330
1B
100
AcDbEntity
 67
     1
  8
0
100
AcDbBlockEnd
  0
BLOCK
  5
24
330
23
100
AcDbEntity
  8
0
100
AcDbBlockBegin
  2
*Paper_Space0
 70
     0
 10
0.0
 20
0.0
 30
0.0
  3
*Paper_Space0
  1

  0
ENDBLK
  5
25
330
23
100
AcDbEntity
  8
0
100
AcDbBlockEnd
  0
BLOCK
  5
49
330
48
100
AcDbEntity
  8
0
100
AcDbBlockBegin
  2
_formato_A4
 70
     0
 10
0.0
 20
0.0
 30
0.0
  3
_formato_A4
  1

  0
LINE
  5
50
330
48
100
AcDbEntity
  8
1
  6
Continuous
 62
     7
100
AcDbLine
 10
-189.0
 20
20.0
 30
0.0
 11
-5.0
 21
20.0
 31
0.0
  0
LINE
  5
51
330
48
100
AcDbEntity
  8
1
  6
Continuous
 62
     7
100
AcDbLine
 10
-189.0
 20
4.99999999999989
 30
0.0
 11
-5.0
 21
4.99999999999989
 31
0.0
  0
LINE
  5
52
330
48
100
AcDbEntity
  8
1
  6
Continuous
 62
     7
100
AcDbLine
 10
-163.9999999999999
 20
35.0
 30
0.0
 11
-163.9999999999999
 21
40.0
 31
0.0
  0
LINE
  5
53
330
48
100
AcDbEntity
  8
1
  6
Continuous
 62
     7
100
AcDbLine
 10
-182.0
 20
35.0
 30
0.0
 11
-182.0
 21
40.0
 31
0.0
  0
LINE
  5
54
330
48
100
AcDbEntity
  8
1
  6
Continuous
 62
     7
100
AcDbLine
 10
-189.0
 20
40.0
 30
0.0
 11
-5.0
 21
40.0
 31
0.0
  0
LINE
  5
55
330
48
100
AcDbEntity
  8
1
  6
Continuous
 62
     7
100
AcDbLine
 10
-163.9999999999999
 20
30.0
 30
0.0
 11
-163.9999999999999
 21
35.0
 31
0.0
  0
LINE
  5
56
330
48
100
AcDbEntity
  8
1
  6
Continuous
 62
     7
100
AcDbLine
 10
-182.0
 20
30.0
 30
0.0
 11
-182.0
 21
35.0
 31
0.0
  0
LINE
  5
57
330
48
100
AcDbEntity
  8
1
  6
Continuous
 62
     7
100
AcDbLine
 10
-189.0
 20
35.0
 30
0.0
 11
-5.0
 21
35.0
 31
0.0
  0
LINE
  5
58
330
48
100
AcDbEntity
  8
1
  6
Continuous
 62
     7
100
AcDbLine
 10
-163.9999999999999
 20
25.0
 30
0.0
 11
-163.9999999999999
 21
30.0
 31
0.0
  0
LINE
  5
59
330
48
100
AcDbEntity
  8
1
  6
Continuous
 62
     7
100
AcDbLine
 10
-182.0
 20
25.0
 30
0.0
 11
-182.0
 21
30.0
 31
0.0
  0
LINE
  5
5A
330
48
100
AcDbEntity
  8
1
  6
Continuous
 62
     7
100
AcDbLine
 10
-189.0
 20
30.0
 30
0.0
 11
-5.0
 21
30.0
 31
0.0
  0
LINE
  5
5B
330
48
100
AcDbEntity
  8
1
  6
Continuous
 62
     7
100
AcDbLine
 10
-163.9999999999999
 20
20.0
 30
0.0
 11
-163.9999999999999
 21
25.0
 31
0.0
  0
LINE
  5
5C
330
48
100
AcDbEntity
  8
1
  6
Continuous
 62
     7
100
AcDbLine
 10
-182.0
 20
20.0
 30
0.0
 11
-182.0
 21
25.0
 31
0.0
  0
LINE
  5
5D
330
48
100
AcDbEntity
  8
1
  6
Continuous
 62
     7
100
AcDbLine
 10
-189.0
 20
25.0
 30
0.0
 11
-5.0
 21
25.0
 31
0.0
  0
LINE
  5
5E
102
{ACAD_REACTORS
330
A3
102
}
330
48
100
AcDbEntity
  8
1
  6
Continuous
 62
     7
100
AcDbLine
 10
-14.15712516009415
 20
10.55800208038033
 30
0.0
 11
-15.49045849342747
 21
9.78877131114973
 31
0.0
  0
LINE
  5
5F
102
{ACAD_REACTORS
330
A3
102
}
330
48
100
AcDbEntity
  8
1
  6
Continuous
 62
     7
100
AcDbLine
 10
-15.32369931125726
 20
10.65463653264794
 30
0.0
 11
-14.49027346242048
 21
11.13545913774624
 31
0.0
  0
LINE
  5
60
102
{ACAD_REACTORS
330
A3
102
}
330
48
100
AcDbEntity
  8
1
  6
Continuous
 62
     7
100
AcDbLine
 10
-15.32369931125726
 20
12.16666666666663
 30
0.0
 11
-15.32369931125726
 21
10.65463653264794
 31
0.0
  0
LINE
  5
61
102
{ACAD_REACTORS
330
A3
102
}
330
48
100
AcDbEntity
  8
1
  6
Continuous
 62
     7
100
AcDbLine
 10
-14.32369931125726
 20
12.16666666666663
 30
0.0
 11
-15.32369931125726
 21
12.16666666666663
 31
0.0
  0
LINE
  5
62
102
{ACAD_REACTORS
330
A3
102
}
330
48
100
AcDbEntity
  8
1
  6
Continuous
 62
     7
100
AcDbLine
 10
-15.32369931125726
 20
12.83333333333326
 30
0.0
 11
-14.32369931125726
 21
12.83333333333326
 31
0.0
  0
LINE
  5
63
102
{ACAD_REACTORS
330
A3
102
}
330
48
100
AcDbEntity
  8
1
  6
Continuous
 62
     7
100
AcDbLine
 10
-15.32369931125726
 20
14.34536346735195
 30
0.0
 11
-15.32369931125726
 21
12.83333333333326
 31
0.0
  0
LINE
  5
64
102
{ACAD_REACTORS
330
A3
102
}
330
48
100
AcDbEntity
  8
1
  6
Continuous
 62
     7
100
AcDbLine
 10
-14.49027346242048
 20
13.86454086225376
 30
0.0
 11
-15.32369931125726
 21
14.34536346735195
 31
0.0
  0
LINE
  5
65
102
{ACAD_REACTORS
330
A3
102
}
330
48
100
AcDbEntity
  8
1
  6
Continuous
 62
     7
100
AcDbLine
 10
-15.49045849342747
 20
15.21122868885027
 30
0.0
 11
-14.15712516009415
 21
14.44199791961944
 31
0.0
  0
LINE
  5
66
102
{ACAD_REACTORS
330
A4
102
}
330
48
100
AcDbEntity
  8
1
  6
Continuous
 62
     7
100
AcDbLine
 10
-22.65703264459069
 20
10.84673060906323
 30
0.0
 11
-22.65703264459069
 21
14.15326939093666
 31
0.0
  0
LINE
  5
67
102
{ACAD_REACTORS
330
A4
102
}
330
48
100
AcDbEntity
  8
1
  6
Continuous
 62
     7
100
AcDbLine
 10
-21.99036597792406
 20
11.0392519172633
 30
0.0
 11
-21.99036597792406
 21
10.84673060906323
 31
0.0
  0
LINE
  5
68
102
{ACAD_REACTORS
330
A4
102
}
330
48
100
AcDbEntity
  8
1
  6
Continuous
 62
     7
100
AcDbLine
 10
-21.99036597792406
 20
14.15326939093666
 30
0.0
 11
-21.99036597792406
 21
11.0392519172633
 31
0.0
  0
LINE
  5
69
102
{ACAD_REACTORS
330
A5
102
}
330
48
100
AcDbEntity
  8
1
  6
Continuous
 62
     7
100
AcDbLine
 10
-18.8236067957539
 20
8.44261746499581
 30
0.0
 11
-20.99018094691701
 21
9.69256409066691
 31
0.0
  0
LINE
  5
6A
102
{ACAD_REACTORS
330
A5
102
}
330
48
100
AcDbEntity
  8
1
  6
Continuous
 62
     7
100
AcDbLine
 10
-20.65703264459069
 20
10.2700211480327
 30
0.0
 11
-18.49045849342747
 21
9.0200745223616
 31
0.0
  0
LINE
  5
6B
102
{ACAD_REACTORS
330
A5
102
}
330
48
100
AcDbEntity
  8
1
  6
Continuous
 62
     7
100
AcDbLine
 10
-20.65703264459069
 20
14.92250016016737
 30
0.0
 11
-20.65703264459069
 21
10.2700211480327
 31
0.0
  0
LINE
  5
6C
102
{ACAD_REACTORS
330
A5
102
}
330
48
100
AcDbEntity
  8
1
  6
Continuous
 62
     7
100
AcDbLine
 10
-21.32369931125726
 20
10.27002114803258
 30
0.0
 11
-21.32369931125726
 21
14.92250016016737
 31
0.0
  0
LINE
  5
6D
102
{ACAD_REACTORS
330
A6
102
}
330
48
100
AcDbEntity
  8
1
  6
Continuous
 62
     7
100
AcDbLine
 10
-17.1514663282141
 20
15.86370041827229
 30
0.0
 11
-18.32369931125726
 21
13.83333333333326
 31
0.0
  0
LINE
  5
6E
102
{ACAD_REACTORS
330
A6
102
}
330
48
100
AcDbEntity
  8
1
  6
Continuous
 62
     7
100
AcDbLine
 10
-16.65703264459069
 20
9.3082690706018
 30
0.0
 11
-16.65703264459069
 21
15.73121731203457
 31
0.0
  0
LINE
  5
6F
102
{ACAD_REACTORS
330
A6
102
}
330
48
100
AcDbEntity
  8
1
  6
Continuous
 62
     7
100
AcDbLine
 10
-17.32369931125726
 20
12.5
 30
0.0
 11
-17.32369931125726
 21
9.3082690706018
 31
0.0
  0
LINE
  5
70
102
{ACAD_REACTORS
330
A6
102
}
330
48
100
AcDbEntity
  8
1
  6
Continuous
 62
     7
100
AcDbLine
 10
-19.32369931125726
 20
10.84758507263291
 30
0.0
 11
-19.32369931125726
 21
12.5
 31
0.0
  0
LINE
  5
71
102
{ACAD_REACTORS
330
A6
102
}
330
48
100
AcDbEntity
  8
1
  6
Continuous
 62
     7
100
AcDbLine
 10
-19.99036597792406
 20
12.5
 30
0.0
 11
-19.99036597792406
 21
10.84758507263291
 31
0.0
  0
LINE
  5
72
102
{ACAD_REACTORS
330
A6
102
}
330
48
100
AcDbEntity
  8
1
  6
Continuous
 62
     7
100
AcDbLine
 10
-19.49593229430059
 20
15.86370041827229
 30
0.0
 11
-18.32369931125726
 21
13.83333333333326
 31
0.0
  0
LINE
  5
73
102
{ACAD_REACTORS
330
A6
102
}
330
48
100
AcDbEntity
  8
1
  6
Continuous
 62
     7
100
AcDbLine
 10
-19.99036597792406
 20
12.5
 30
0.0
 11
-19.99036597792406
 21
15.73121731203457
 31
0.0
  0
LINE
  5
74
330
48
100
AcDbEntity
  8
1
  6
Continuous
 62
     7
100
AcDbLine
 10
-18.32369931125726
 20
7.5
 30
0.0
 11
-26.74013458639888
 21
12.35563573565855
 31
0.0
  0
LINE
  5
75
330
48
100
AcDbEntity
  8
1
  6
Continuous
 62
     7
100
AcDbLine
 10
-9.90726403611586
 20
12.35563573565855
 30
0.0
 11
-18.32369931125726
 21
7.5
 31
0.0
  0
LINE
  5
76
330
48
100
AcDbEntity
  8
1
  6
Continuous
 62
     7
100
AcDbLine
 10
-18.32369931125726
 20
17.5
 30
0.0
 11
-9.90726403611586
 21
12.64436426434133
 31
0.0
  0
LINE
  5
77
330
48
100
AcDbEntity
  8
1
  6
Continuous
 62
     7
100
AcDbLine
 10
-26.74013458639888
 20
12.64436426434133
 30
0.0
 11
-18.32369931125726
 21
17.5
 31
0.0
  0
LINE
  5
78
102
{ACAD_REACTORS
330
A6
102
}
330
48
100
AcDbEntity
  8
1
  6
Continuous
 62
     7
100
AcDbLine
 10
-19.32369931125726
 20
14.23205080756884
 30
0.0
 11
-19.32369931125726
 21
12.5
 31
0.0
  0
LINE
  5
79
102
{ACAD_REACTORS
330
A6
102
}
330
48
100
AcDbEntity
  8
1
  6
Continuous
 62
     7
100
AcDbLine
 10
-18.46803687855476
 20
12.75
 30
0.0
 11
-19.32369931125726
 21
14.23205080756884
 31
0.0
  0
LINE
  5
7A
102
{ACAD_REACTORS
330
A6
102
}
330
48
100
AcDbEntity
  8
1
  6
Continuous
 62
     7
100
AcDbLine
 10
-17.32369931125726
 20
14.23205080756884
 30
0.0
 11
-18.17936174395987
 21
12.75
 31
0.0
  0
LINE
  5
7B
102
{ACAD_REACTORS
330
A6
102
}
330
48
100
AcDbEntity
  8
1
  6
Continuous
 62
     7
100
AcDbLine
 10
-17.32369931125726
 20
12.5
 30
0.0
 11
-17.32369931125726
 21
14.23205080756884
 31
0.0
  0
LINE
  5
7C
102
{ACAD_REACTORS
330
A3
102
}
330
48
100
AcDbEntity
  8
1
  6
Continuous
 62
     7
100
AcDbLine
 10
-15.990365977924
 20
10.07749983983263
 30
0.0
 11
-15.990365977924
 21
14.92250016016737
 31
0.0
  0
LINE
  5
7D
330
48
100
AcDbEntity
  8
1
  6
Continuous
 62
     7
100
AcDbLine
 10
-189.0
 20
292.0000000000001
 30
0.0
 11
-189.0
 21
4.99999999999989
 31
0.0
  0
LINE
  5
7E
330
48
100
AcDbEntity
  8
1
  6
Continuous
 62
     7
100
AcDbLine
 10
-5.0
 20
292.0000000000001
 30
0.0
 11
-189.0
 21
292.0000000000001
 31
0.0
  0
LINE
  5
7F
330
48
100
AcDbEntity
  8
1
  6
Continuous
 62
     7
100
AcDbLine
 10
-5.0
 20
4.99999999999989
 30
0.0
 11
-5.0
 21
292.0000000000001
 31
0.0
  0
LINE
  5
80
330
48
100
AcDbEntity
  8
1
  6
Continuous
 62
     7
100
AcDbLine
 10
0.0
 20
297.0000000000001
 30
0.0
 11
-210.0000000000001
 21
297.0000000000001
 31
0.0
  0
LINE
  5
81
330
48
100
AcDbEntity
  8
1
  6
Continuous
 62
     7
100
AcDbLine
 10
-210.0000000000001
 20
297.0000000000001
 30
0.0
 11
-210.0000000000001
 21
0.0
 31
0.0
  0
LINE
  5
82
330
48
100
AcDbEntity
  8
1
  6
Continuous
 62
     7
100
AcDbLine
 10
-210.0000000000001
 20
0.0
 30
0.0
 11
0.0
 21
0.0
 31
0.0
  0
LINE
  5
83
330
48
100
AcDbEntity
  8
1
  6
Continuous
 62
     7
100
AcDbLine
 10
0.0
 20
0.0
 30
0.0
 11
0.0
 21
297.0000000000001
 31
0.0
  0
LINE
  5
84
330
48
100
AcDbEntity
  8
1
  6
Continuous
 62
     7
100
AcDbLine
 10
-210.0000000000001
 20
148.4999999999997
 30
0.0
 11
-195.0000000000001
 21
148.4999999999997
 31
0.0
  0
LINE
  5
85
330
48
100
AcDbEntity
  8
1
  6
Continuous
 62
     7
100
AcDbLine
 10
-189.0
 20
9.99999999999989
 30
0.0
 11
-159.0
 21
9.99999999999989
 31
0.0
  0
LINE
  5
86
330
48
100
AcDbEntity
  8
1
  6
Continuous
 62
     7
100
AcDbLine
 10
-159.0
 20
20.0
 30
0.0
 11
-159.0
 21
5.0
 31
0.0
  0
LINE
  5
87
330
48
100
AcDbEntity
  8
1
  6
Continuous
 62
     7
100
AcDbLine
 10
-31.64739862251457
 20
20.0
 30
0.0
 11
-31.64739862251457
 21
5.0
 31
0.0
  0
LINE
  5
88
330
48
100
AcDbEntity
  8
1
  6
Continuous
 62
     7
100
AcDbLine
 10
-49.0
 20
20.0
 30
0.0
 11
-49.0
 21
5.0
 31
0.0
  0
LINE
  5
89
330
48
100
AcDbEntity
  8
1
  6
Continuous
 62
     7
100
AcDbLine
 10
-189.0
 20
20.0
 30
0.0
 11
-189.0
 21
4.99999999999989
 31
0.0
  0
LINE
  5
8A
330
48
100
AcDbEntity
  8
1
  6
Continuous
 62
     7
100
AcDbLine
 10
-189.0
 20
14.99999999999989
 30
0.0
 11
-159.0
 21
14.99999999999989
 31
0.0
  0
ARC
  5
8B
102
{ACAD_REACTORS
330
A3
102
}
330
48
100
AcDbEntity
  8
1
  6
Continuous
 62
     7
100
AcDbCircle
 10
-14.32369931125726
 20
10.84673060906323
 30
0.0
 40
0.3333333333333198
100
AcDbArc
 50
299.9816393688342
 51
119.9816393688413
  0
ARC
  5
8C
102
{ACAD_REACTORS
330
A3
102
}
330
48
100
AcDbEntity
  8
1
  6
Continuous
 62
     7
100
AcDbCircle
 10
-14.32369931125726
 20
12.5
 30
0.0
 40
0.3333333333333695
100
AcDbArc
 50
270.0
 51
90.0
  0
ARC
  5
8D
102
{ACAD_REACTORS
330
A3
102
}
330
48
100
AcDbEntity
  8
1
  6
Continuous
 62
     7
100
AcDbCircle
 10
-14.32369931125726
 20
14.15326939093666
 30
0.0
 40
0.3333333333333773
100
AcDbArc
 50
240.0183606311493
 51
60.01836063115558
  0
ARC
  5
8E
102
{ACAD_REACTORS
330
A4
102
}
330
48
100
AcDbEntity
  8
1
  6
Continuous
 62
     7
100
AcDbCircle
 10
-22.32369931125726
 20
10.84673060906323
 30
0.0
 40
0.3333333333334281
100
AcDbArc
 50
180.0
 51
0.0
  0
ARC
  5
8F
102
{ACAD_REACTORS
330
A4
102
}
330
48
100
AcDbEntity
  8
1
  6
Continuous
 62
     7
100
AcDbCircle
 10
-22.32369931125726
 20
14.15326939093666
 30
0.0
 40
0.3333333333332007
100
AcDbArc
 50
0.0
 51
180.0
  0
ARC
  5
90
102
{ACAD_REACTORS
330
A5
102
}
330
48
100
AcDbEntity
  8
1
  6
Continuous
 62
     7
100
AcDbCircle
 10
-18.65703264459069
 20
8.7313459936787
 30
0.0
 40
0.3333333333333673
100
AcDbArc
 50
240.0183606311504
 51
60.01836063114937
  0
ARC
  5
91
102
{ACAD_REACTORS
330
A5
102
}
330
48
100
AcDbEntity
  8
1
  6
Continuous
 62
     7
100
AcDbCircle
 10
-20.99036597792406
 20
14.92250016016737
 30
0.0
 40
0.3333333333333712
100
AcDbArc
 50
0.0
 51
180.0
  0
ARC
  5
92
102
{ACAD_REACTORS
330
A6
102
}
330
48
100
AcDbEntity
  8
1
  6
Continuous
 62
     7
100
AcDbCircle
 10
-16.921998857066
 20
15.73121731203457
 30
0.0
 40
0.2649662124753114
100
AcDbArc
 50
0.0
 51
149.9999999999808
  0
ARC
  5
93
102
{ACAD_REACTORS
330
A6
102
}
330
48
100
AcDbEntity
  8
1
  6
Continuous
 62
     7
100
AcDbCircle
 10
-16.990365977924
 20
9.3082690706018
 30
0.0
 40
0.3333333333332611
100
AcDbArc
 50
180.0
 51
0.0
  0
ARC
  5
94
102
{ACAD_REACTORS
330
A6
102
}
330
48
100
AcDbEntity
  8
1
  6
Continuous
 62
     7
100
AcDbCircle
 10
-19.65703264459069
 20
10.84758507263291
 30
0.0
 40
0.3333333333333712
100
AcDbArc
 50
180.0
 51
0.0
  0
ARC
  5
95
102
{ACAD_REACTORS
330
A6
102
}
330
48
100
AcDbEntity
  8
1
  6
Continuous
 62
     7
100
AcDbCircle
 10
-19.7253997654488
 20
15.73121731203457
 30
0.0
 40
0.2649662124753808
100
AcDbArc
 50
30.00000000000731
 51
180.0
  0
ARC
  5
96
102
{ACAD_REACTORS
330
A3
102
}
330
48
100
AcDbEntity
  8
1
  6
Continuous
 62
     7
100
AcDbCircle
 10
-15.65703264459069
 20
10.07749983983263
 30
0.0
 40
0.3333333333333108
100
AcDbArc
 50
180.0
 51
299.9816393688506
  0
ARC
  5
97
102
{ACAD_REACTORS
330
A3
102
}
330
48
100
AcDbEntity
  8
1
  6
Continuous
 62
     7
100
AcDbCircle
 10
-15.65703264459069
 20
14.92250016016737
 30
0.0
 40
0.3333333333333749
100
AcDbArc
 50
60.01836063114941
 51
180.0
  0
ARC
  5
98
330
48
100
AcDbEntity
  8
1
  6
Continuous
 62
     7
100
AcDbCircle
 10
-9.99055111169736
 20
12.5
 30
0.0
 40
0.1666666666666302
100
AcDbArc
 50
299.9816393688164
 51
60.01836063116308
  0
ARC
  5
99
330
48
100
AcDbEntity
  8
1
  6
Continuous
 62
     7
100
AcDbCircle
 10
-26.65684751081716
 20
12.5
 30
0.0
 40
0.1666666666666407
100
AcDbArc
 50
119.9816393689046
 51
240.0183606311158
  0
ARC
  5
9A
102
{ACAD_REACTORS
330
A5
102
}
330
48
100
AcDbEntity
  8
1
  6
Continuous
 62
     7
100
AcDbCircle
 10
-20.65703264459069
 20
10.2700211480327
 30
0.0
 40
0.6666666666665719
100
AcDbArc
 50
180.0000000000104
 51
240.018360631158
  0
ARC
  5
9B
102
{ACAD_REACTORS
330
A6
102
}
330
48
100
AcDbEntity
  8
1
  6
Continuous
 62
     7
100
AcDbCircle
 10
-18.32369931125726
 20
12.83333333333326
 30
0.0
 40
0.166666666666709
100
AcDbArc
 50
209.9999999999622
 51
330.0000000000195
  0
MTEXT
  5
9D
330
48
100
AcDbEntity
  8
1
 62
     7
100
AcDbMText
 10
-40.32369931125726
 20
16.26063942075598
 30
0.0
 40
3.0
 41
0.0
 71
     5
 72
     1
  1
Scale
  7
CONVERTER_11
 73
     1
 44
1.32052821128451
  0
MTEXT
  5
9E
330
48
100
AcDbEntity
  8
1
 62
     7
100
AcDbMText
 10
-188.0
 20
7.49999999999989
 30
0.0
 40
3.0
 41
0.0
 71
     4
 72
     1
  1
Sign.
  7
CONVERTER_11
 73
     1
 44
1.32052821128451
  0
MTEXT
  5
9F
330
48
100
AcDbEntity
  8
1
 62
     7
100
AcDbMText
 10
-188.0
 20
12.49999999999989
 30
0.0
 40
3.0
 41
0.0
 71
     4
 72
     1
  1
Date
  7
CONVERTER_11
 73
     1
 44
1.32052821128451
  0
MTEXT
  5
A0
330
48
100
AcDbEntity
  8
1
 62
     7
100
AcDbMText
 10
-194.0000000000001
 20
151.4999999999997
 30
0.0
 40
4.0
 41
0.0
 71
     5
 72
     1
  1
Diritti riservati      All rights reserved
  7
CONVERTER_11
 11
0.0
 21
1.0
 31
0.0
 73
     1
 44
1.32052821128451
  0
MTEXT
  5
A2
330
48
100
AcDbEntity
  8
1
 62
     7
100
AcDbMText
 10
-174.0
 20
17.49999999999989
 30
0.0
 40
2.5
 41
0.0
 71
     5
 72
     1
  1
dimensions in mm
  7
CONVERTER_12
 73
     1
 44
0.60024009603842
  0
HATCH
  5
A3
330
48
100
AcDbEntity
  8
1
  6
Continuous
 62
     7
100
AcDbHatch
 10
0.0
 20
0.0
 30
0.0
210
0.0
220
0.0
230
1.0
  2
SOLID
 70
     1
 71
     1
 91
        1
 92
        1
 93
       14
 72
     2
 10
-15.65703264459069
 20
14.92250016016737
 40
0.3333333333333749
 50
60.01836063114941
 51
180.0
 73
     1
 72
     1
 10
-15.990365977924
 20
14.92250016016737
 11
-15.990365977924
 21
10.07749983983263
 72
     2
 10
-15.65703264459069
 20
10.07749983983263
 40
0.3333333333333108
 50
180.0
 51
299.9816393688506
 73
     1
 72
     1
 10
-15.49045849342747
 20
9.78877131114973
 11
-14.15712516009415
 21
10.55800208038033
 72
     2
 10
-14.32369931125726
 20
10.84673060906323
 40
0.3333333333333198
 50
299.9816393688342
 51
479.9816393688413
 73
     1
 72
     1
 10
-14.49027346242048
 20
11.13545913774624
 11
-15.32369931125726
 21
10.65463653264794
 72
     1
 10
-15.32369931125726
 20
10.65463653264794
 11
-15.32369931125726
 21
12.16666666666663
 72
     1
 10
-15.32369931125726
 20
12.16666666666663
 11
-14.32369931125726
 21
12.16666666666663
 72
     2
 10
-14.32369931125726
 20
12.5
 40
0.3333333333333695
 50
270.0
 51
450.0
 73
     1
 72
     1
 10
-14.32369931125726
 20
12.83333333333326
 11
-15.32369931125726
 21
12.83333333333326
 72
     1
 10
-15.32369931125726
 20
12.83333333333326
 11
-15.32369931125726
 21
14.34536346735195
 72
     1
 10
-15.32369931125726
 20
14.34536346735195
 11
-14.49027346242048
 21
13.86454086225376
 72
     2
 10
-14.32369931125726
 20
14.15326939093666
 40
0.3333333333333773
 50
240.0183606311493
 51
420.0183606311556
 73
     1
 72
     1
 10
-14.15712516009415
 20
14.44199791961944
 11
-15.49045849342747
 21
15.21122868885027
 97
       14
330
8D
330
64
330
63
330
62
330
8C
330
61
330
60
330
5F
330
8B
330
5E
330
96
330
7C
330
97
330
65
 75
     0
 76
     1
 98
        1
 10
0.0
 20
0.0
  0
HATCH
  5
A4
330
48
100
AcDbEntity
  8
1
  6
Continuous
 62
     7
100
AcDbHatch
 10
0.0
 20
0.0
 30
0.0
210
0.0
220
0.0
230
1.0
  2
SOLID
 70
     1
 71
     1
 91
        1
 92
        1
 93
        5
 72
     2
 10
-22.32369931125726
 20
14.15326939093666
 40
0.3333333333332007
 50
0.0
 51
180.0
 73
     1
 72
     1
 10
-22.65703264459069
 20
14.15326939093666
 11
-22.65703264459069
 21
10.84673060906323
 72
     2
 10
-22.32369931125726
 20
10.84673060906323
 40
0.3333333333334281
 50
180.0
 51
360.0
 73
     1
 72
     1
 10
-21.99036597792406
 20
10.84673060906323
 11
-21.99036597792406
 21
11.0392519172633
 72
     1
 10
-21.99036597792406
 20
11.0392519172633
 11
-21.99036597792406
 21
14.15326939093666
 97
        5
330
8F
330
66
330
8E
330
67
330
68
 75
     0
 76
     1
 98
        1
 10
0.0
 20
0.0
  0
HATCH
  5
A5
330
48
100
AcDbEntity
  8
1
  6
Continuous
 62
     7
100
AcDbHatch
 10
0.0
 20
0.0
 30
0.0
210
0.0
220
0.0
230
1.0
  2
SOLID
 70
     1
 71
     1
 91
        1
 92
        1
 93
        7
 72
     2
 10
-20.99036597792406
 20
14.92250016016737
 40
0.3333333333333712
 50
0.0
 51
180.0
 73
     1
 72
     1
 10
-21.32369931125726
 20
14.92250016016737
 11
-21.32369931125726
 21
10.27002114803258
 72
     2
 10
-20.65703264459069
 20
10.2700211480327
 40
0.6666666666665719
 50
180.0000000000104
 51
240.018360631158
 73
     1
 72
     1
 10
-20.99018094691701
 20
9.692564090666906
 11
-18.8236067957539
 21
8.442617464995806
 72
     2
 10
-18.65703264459069
 20
8.731345993678701
 40
0.3333333333333673
 50
240.0183606311504
 51
420.0183606311494
 73
     1
 72
     1
 10
-18.49045849342747
 20
9.020074522361597
 11
-20.65703264459069
 21
10.2700211480327
 72
     1
 10
-20.65703264459069
 20
10.2700211480327
 11
-20.65703264459069
 21
14.92250016016737
 97
        7
330
91
330
6C
330
9A
330
69
330
90
330
6A
330
6B
 75
     0
 76
     1
 98
        1
 10
0.0
 20
0.0
  0
HATCH
  5
A6
330
48
100
AcDbEntity
  8
1
  6
Continuous
 62
     7
100
AcDbHatch
 10
0.0
 20
0.0
 30
0.0
210
0.0
220
0.0
230
1.0
  2
SOLID
 70
     1
 71
     1
 91
        1
 92
        1
 93
       16
 72
     2
 10
-16.921998857066
 20
15.73121731203457
 40
0.2649662124753114
 50
210.0000000000192
 51
360.0
 73
     0
 72
     1
 10
-16.65703264459069
 20
15.73121731203457
 11
-16.65703264459069
 21
9.308269070601796
 72
     2
 10
-16.990365977924
 20
9.308269070601796
 40
0.3333333333332611
 50
0.0
 51
180.0
 73
     0
 72
     1
 10
-17.32369931125726
 20
9.308269070601796
 11
-17.32369931125726
 21
12.5
 72
     1
 10
-17.32369931125726
 20
12.5
 11
-17.32369931125726
 21
14.23205080756884
 72
     1
 10
-17.32369931125726
 20
14.23205080756884
 11
-18.17936174395987
 21
12.75
 72
     2
 10
-18.32369931125726
 20
12.83333333333326
 40
0.166666666666709
 50
29.99999999998053
 51
150.0000000000378
 73
     0
 72
     1
 10
-18.46803687855476
 20
12.75
 11
-19.32369931125726
 21
14.23205080756884
 72
     1
 10
-19.32369931125726
 20
14.23205080756884
 11
-19.32369931125726
 21
12.5
 72
     1
 10
-19.32369931125726
 20
12.5
 11
-19.32369931125726
 21
10.84758507263291
 72
     2
 10
-19.65703264459069
 20
10.84758507263291
 40
0.3333333333333712
 50
0.0
 51
180.0
 73
     0
 72
     1
 10
-19.99036597792406
 20
10.84758507263291
 11
-19.99036597792406
 21
12.5
 72
     1
 10
-19.99036597792406
 20
12.5
 11
-19.99036597792406
 21
15.73121731203457
 72
     2
 10
-19.7253997654488
 20
15.73121731203457
 40
0.2649662124753808
 50
180.0
 51
329.9999999999927
 73
     0
 72
     1
 10
-19.49593229430059
 20
15.86370041827229
 11
-18.32369931125726
 21
13.83333333333326
 72
     1
 10
-18.32369931125726
 20
13.83333333333326
 11
-17.1514663282141
 21
15.86370041827229
 97
       16
330
72
330
95
330
73
330
71
330
94
330
70
330
78
330
79
330
9B
330
7A
330
7B
330
6F
330
93
330
6E
330
92
330
6D
 75
     0
 76
     1
 98
        1
 10
0.0
 20
0.0
  0
ENDBLK
  5
4A
330
48
100
AcDbEntity
  8
0
100
AcDbBlockEnd
  0
BLOCK
  5
4D
330
4B
100
AcDbEntity
  8
0
100
AcDbBlockBegin
  2
A4
 70
     0
 10
0.0
 20
0.0
 30
0.0
  3
A4
  1

  0
INSERT
  5
4C
330
4B
100
AcDbEntity
  8
1
100
AcDbBlockReference
  2
_formato_A4
 10
0.0
 20
0.0
 30
0.0
  0
ENDBLK
  5
4E
330
4B
100
AcDbEntity
  8
0
100
AcDbBlockEnd
  0
BLOCK
  5
1AF
330
1A7
100
AcDbEntity
  8
0
100
AcDbBlockBegin
  2
*D3
 70
     1
 10
0.0
 20
0.0
 30
0.0
  3
*D3
  1

  0
LINE
  5
1A8
330
1A7
100
AcDbEntity
  8
1
  6
Continuous
 62
     2
100
AcDbLine
 10
-74.95174010232645
 20
86.765890261898
 30
0.0
 11
-53.95174010232657
 21
86.765890261898
 31
0.0
  0
LINE
  5
1A9
330
1A7
100
AcDbEntity
  8
1
  6
Continuous
 62
     2
100
AcDbLine
 10
-74.95174010232645
 20
104.6869639967123
 30
0.0
 11
-74.95174010232645
 21
85.765890261898
 31
0.0
  0
LINE
  5
1AA
330
1A7
100
AcDbEntity
  8
1
  6
Continuous
 62
     2
100
AcDbLine
 10
-53.95174010232657
 20
104.6869639967123
 30
0.0
 11
-53.95174010232657
 21
85.765890261898
 31
0.0
  0
SOLID
  5
1AB
330
1A7
100
AcDbEntity
  8
1
 62
     2
100
AcDbTrace
 10
-71.95174010232645
 20
87.16084775466018
 30
0.0
 11
-71.95174010232645
 21
86.3709327691358
 31
0.0
 12
-74.95174010232645
 22
86.765890261898
 32
0.0
 13
-74.95174010232645
 23
86.765890261898
 33
0.0
  0
SOLID
  5
1AC
330
1A7
100
AcDbEntity
  8
1
 62
     2
100
AcDbTrace
 10
-56.95174010232657
 20
86.3709327691358
 30
0.0
 11
-56.95174010232657
 21
87.16084775466018
 31
0.0
 12
-53.95174010232657
 22
86.765890261898
 32
0.0
 13
-53.95174010232657
 23
86.765890261898
 33
0.0
  0
MTEXT
  5
1AE
330
1A7
100
AcDbEntity
  8
1
 62
     4
100
AcDbMText
 10
-66.25174010232651
 20
88.765890261898
 30
0.0
 40
3.0
 41
0.0
 71
     7
 72
     1
  1
21
  7
CONVERTER_13
 11
0.9999999999970619
 21
2.424068405545306E-6
 31
0.0
 73
     1
 44
0.60024009603842
  0
ENDBLK
  5
1B0
330
1A7
100
AcDbEntity
  8
0
100
AcDbBlockEnd
  0
BLOCK
  5
1BA
330
1B3
100
AcDbEntity
  8
0
100
AcDbBlockBegin
  2
*D4
 70
     1
 10
0.0
 20
0.0
 30
0.0
  3
*D4
  1

  0
LINE
  5
1B4
330
1B3
100
AcDbEntity
  8
1
  6
Continuous
 62
     2
100
AcDbLine
 10
-148.3017401023266
 20
223.7760836317667
 30
0.0
 11
-127.3017401023266
 21
223.7760836317667
 31
0.0
  0
LINE
  5
1B5
330
1B3
100
AcDbEntity
  8
1
  6
Continuous
 62
     2
100
AcDbLine
 10
-148.3017401023266
 20
208.6569103988191
 30
0.0
 11
-148.3017401023266
 21
224.7760836317667
 31
0.0
  0
LINE
  5
1B6
330
1B3
100
AcDbEntity
  8
1
  6
Continuous
 62
     2
100
AcDbLine
 10
-127.3017401023266
 20
214.9569103988193
 30
0.0
 11
-127.3017401023266
 21
224.7760836317667
 31
0.0
  0
SOLID
  5
1B7
330
1B3
100
AcDbEntity
  8
1
 62
     2
100
AcDbTrace
 10
-145.3017401023266
 20
224.1710411245289
 30
0.0
 11
-145.3017401023266
 21
223.3811261390045
 31
0.0
 12
-148.3017401023266
 22
223.7760836317667
 32
0.0
 13
-148.3017401023266
 23
223.7760836317667
 33
0.0
  0
SOLID
  5
1B8
330
1B3
100
AcDbEntity
  8
1
 62
     2
100
AcDbTrace
 10
-130.3017401023266
 20
223.3811261390045
 30
0.0
 11
-130.3017401023266
 21
224.1710411245289
 31
0.0
 12
-127.3017401023266
 22
223.7760836317667
 32
0.0
 13
-127.3017401023266
 23
223.7760836317667
 33
0.0
  0
MTEXT
  5
1B9
330
1B3
100
AcDbEntity
  8
1
 62
     4
100
AcDbMText
 10
-139.6017401023266
 20
225.7760836317667
 30
0.0
 40
3.0
 41
0.0
 71
     7
 72
     1
  1
21
  7
CONVERTER_13
 11
0.9999999999970619
 21
2.424068405545306E-6
 31
0.0
 73
     1
 44
0.60024009603842
  0
ENDBLK
  5
1BB
330
1B3
100
AcDbEntity
  8
0
100
AcDbBlockEnd
  0
BLOCK
  5
1C5
330
1BE
100
AcDbEntity
  8
0
100
AcDbBlockBegin
  2
*D5
 70
     1
 10
0.0
 20
0.0
 30
0.0
  3
*D5
  1

  0
LINE
  5
1BF
330
1BE
100
AcDbEntity
  8
1
  6
Continuous
 62
     2
100
AcDbLine
 10
-74.95174010232645
 20
223.0055942885757
 30
0.0
 11
-53.95174010232657
 21
223.0055942885757
 31
0.0
  0
LINE
  5
1C0
330
1BE
100
AcDbEntity
  8
1
  6
Continuous
 62
     2
100
AcDbLine
 10
-74.95174010232645
 20
214.9569103988193
 30
0.0
 11
-74.95174010232645
 21
224.0055942885757
 31
0.0
  0
LINE
  5
1C1
330
1BE
100
AcDbEntity
  8
1
  6
Continuous
 62
     2
100
AcDbLine
 10
-53.95174010232657
 20
214.9569103988193
 30
0.0
 11
-53.95174010232657
 21
224.0055942885757
 31
0.0
  0
SOLID
  5
1C2
330
1BE
100
AcDbEntity
  8
1
 62
     2
100
AcDbTrace
 10
-71.95174010232645
 20
223.4005517813379
 30
0.0
 11
-71.95174010232645
 21
222.6106367958135
 31
0.0
 12
-74.95174010232645
 22
223.0055942885757
 32
0.0
 13
-74.95174010232645
 23
223.0055942885757
 33
0.0
  0
SOLID
  5
1C3
330
1BE
100
AcDbEntity
  8
1
 62
     2
100
AcDbTrace
 10
-56.95174010232657
 20
222.6106367958135
 30
0.0
 11
-56.95174010232657
 21
223.4005517813379
 31
0.0
 12
-53.95174010232657
 22
223.0055942885757
 32
0.0
 13
-53.95174010232657
 23
223.0055942885757
 33
0.0
  0
MTEXT
  5
1C4
330
1BE
100
AcDbEntity
  8
1
 62
     4
100
AcDbMText
 10
-66.25174010232651
 20
225.0055942885757
 30
0.0
 40
3.0
 41
0.0
 71
     7
 72
     1
  1
21
  7
CONVERTER_13
 11
0.9999999999970619
 21
2.424068405545306E-6
 31
0.0
 73
     1
 44
0.60024009603842
  0
ENDBLK
  5
1C6
330
1BE
100
AcDbEntity
  8
0
100
AcDbBlockEnd
  0
BLOCK
  5
1D1
330
1C9
100
AcDbEntity
  8
0
100
AcDbBlockBegin
  2
*D6
 70
     1
 10
0.0
 20
0.0
 30
0.0
  3
*D6
  1

  0
LINE
  5
1CA
330
1C9
100
AcDbEntity
  8
1
  6
Continuous
 62
     2
100
AcDbLine
 10
-39.63310240308228
 20
214.4569103988192
 30
0.0
 11
-39.63310240308228
 21
194.9569103988191
 31
0.0
  0
LINE
  5
1CB
330
1C9
100
AcDbEntity
  8
1
  6
Continuous
 62
     2
100
AcDbLine
 10
-39.63310240308228
 20
187.6569103988191
 30
0.0
 11
-39.63310240308228
 21
168.156910398819
 31
0.0
  0
LINE
  5
1CC
330
1C9
100
AcDbEntity
  8
1
  6
Continuous
 62
     2
100
AcDbLine
 10
-53.4517401023266
 20
214.4569103988192
 30
0.0
 11
-38.63310240308228
 21
214.4569103988192
 31
0.0
  0
LINE
  5
1CD
330
1C9
100
AcDbEntity
  8
1
  6
Continuous
 62
     2
100
AcDbLine
 10
-54.40174010232652
 20
168.156910398819
 30
0.0
 11
-38.63310240308228
 21
168.156910398819
 31
0.0
  0
SOLID
  5
1CE
330
1C9
100
AcDbEntity
  8
1
 62
     2
100
AcDbTrace
 10
-39.23814491032009
 20
211.4569103988192
 30
0.0
 11
-40.02805989584447
 21
211.4569103988192
 31
0.0
 12
-39.63310240308228
 22
214.4569103988192
 32
0.0
 13
-39.63310240308228
 23
214.4569103988192
 33
0.0
  0
SOLID
  5
1CF
330
1C9
100
AcDbEntity
  8
1
 62
     2
100
AcDbTrace
 10
-40.02805989584447
 20
171.156910398819
 30
0.0
 11
-39.23814491032009
 21
171.156910398819
 31
0.0
 12
-39.63310240308228
 22
168.156910398819
 32
0.0
 13
-39.63310240308228
 23
168.156910398819
 33
0.0
  0
MTEXT
  5
1D0
330
1C9
100
AcDbEntity
  8
1
 62
     4
100
AcDbMText
 10
-43.75810240308228
 20
189.9569103988191
 30
0.0
 40
3.0
 41
0.0
 71
     7
 72
     1
  1
46,3
  7
CONVERTER_13
 11
0.9999999999970619
 21
2.424068405545306E-6
 31
0.0
 73
     1
 44
0.60024009603842
  0
ENDBLK
  5
1D2
330
1C9
100
AcDbEntity
  8
0
100
AcDbBlockEnd
  0
ENDSEC
  0
SECTION
  2
ENTITIES
  0
INSERT
  5
4F
330
1F
100
AcDbEntity
  8
0
100
AcDbBlockReference
  2
A4
 10
0.0
 20
0.0
 30
0.0
  0
LINE
  5
A7
330
1F
100
AcDbEntity
  8
1
  6
Continuous
 62
     7
100
AcDbLine
 10
-65.26491290069114
 20
202.9780521755054
 30
0.0
 11
-66.09276069060891
 21
202.1502043855874
 31
0.0
  0
LINE
  5
A8
330
1F
100
AcDbEntity
  8
1
  6
Continuous
 62
     7
100
AcDbLine
 10
-65.8305983256403
 20
203.5437376004545
 30
0.0
 11
-66.65844611555818
 21
202.7158898105365
 31
0.0
  0
LINE
  5
A9
330
1F
100
AcDbEntity
  8
1
  6
Continuous
 62
     7
100
AcDbLine
 10
-63.07288187901285
 20
205.1700831971837
 30
0.0
 11
-62.24372063470847
 21
205.9992444414879
 31
0.0
  0
LINE
  5
AA
330
1F
100
AcDbEntity
  8
1
  6
Continuous
 62
     7
100
AcDbLine
 10
-63.63856730396189
 20
205.7357686221328
 30
0.0
 11
-62.80940605965774
 21
206.5649298664371
 31
0.0
  0
LINE
  5
AB
330
1F
100
AcDbEntity
  8
1
  6
Continuous
 62
     7
100
AcDbLine
 10
-63.638567303962
 20
202.9780521755054
 30
0.0
 11
-64.45174010232657
 21
203.5790929395139
 31
0.0
  0
LINE
  5
AC
330
1F
100
AcDbEntity
  8
1
  6
Continuous
 62
     7
100
AcDbLine
 10
-63.63856730396189
 20
205.7357686221328
 30
0.0
 11
-64.45174010232645
 21
205.1347278581243
 31
0.0
  0
LINE
  5
AD
330
1F
100
AcDbEntity
  8
1
  6
Continuous
 62
     7
100
AcDbLine
 10
-63.07288187901285
 20
205.1700831971837
 30
0.0
 11
-63.67392264302126
 21
204.3569103988193
 31
0.0
  0
LINE
  5
AE
330
1F
100
AcDbEntity
  8
1
  6
Continuous
 62
     7
100
AcDbLine
 10
-65.8305983256403
 20
203.5437376004545
 30
0.0
 11
-65.22955756163176
 21
204.3569103988191
 31
0.0
  0
LINE
  5
AF
330
1F
100
AcDbEntity
  8
1
  6
Continuous
 62
     7
100
AcDbLine
 10
-65.26491290069114
 20
202.9780521755054
 30
0.0
 11
-64.45174010232657
 21
203.5790929395139
 31
0.0
  0
LINE
  5
B0
330
1F
100
AcDbEntity
  8
1
  6
Continuous
 62
     7
100
AcDbLine
 10
-65.83059832564018
 20
205.1700831971837
 30
0.0
 11
-65.22955756163176
 21
204.3569103988191
 31
0.0
  0
LINE
  5
B1
330
1F
100
AcDbEntity
  8
1
  6
Continuous
 62
     7
100
AcDbLine
 10
-65.26491290069114
 20
205.7357686221328
 30
0.0
 11
-64.45174010232645
 21
205.1347278581243
 31
0.0
  0
LINE
  5
B2
330
1F
100
AcDbEntity
  8
1
  6
Continuous
 62
     7
100
AcDbLine
 10
-63.07288187901285
 20
203.5437376004545
 30
0.0
 11
-63.67392264302126
 21
204.3569103988193
 31
0.0
  0
LINE
  5
B3
330
1F
100
AcDbEntity
  8
1
  6
Continuous
 62
     7
100
AcDbLine
 10
-65.26491290069114
 20
205.7357686221328
 30
0.0
 11
-65.83059832564018
 21
205.1700831971837
 31
0.0
  0
LINE
  5
B4
330
1F
100
AcDbEntity
  8
1
  6
Continuous
 62
     7
100
AcDbLine
 10
-63.07288187901285
 20
203.5437376004545
 30
0.0
 11
-63.638567303962
 21
202.9780521755054
 31
0.0
  0
LINE
  5
B5
330
1F
100
AcDbEntity
  8
0
  6
DASHED
 62
     7
100
AcDbLine
 10
-54.90174010232651
 20
168.156910398819
 30
0.0
 11
-54.90174010232651
 21
190.4569103988192
 31
0.0
  0
LINE
  5
B6
330
1F
100
AcDbEntity
  8
0
  6
Continuous
 62
     7
100
AcDbLine
 10
-56.45174010232658
 20
211.656910398819
 30
0.0
 11
-72.45174010232645
 21
211.656910398819
 31
0.0
  0
LINE
  5
B7
330
1F
100
AcDbEntity
  8
0
  6
Continuous
 62
     7
100
AcDbLine
 10
-54.90174010232651
 20
211.656910398819
 30
0.0
 11
-56.45174010232658
 21
211.656910398819
 31
0.0
  0
LINE
  5
B8
330
1F
100
AcDbEntity
  8
0
  6
Continuous
 62
     7
100
AcDbLine
 10
-72.45174010232645
 20
211.656910398819
 30
0.0
 11
-74.00174010232652
 21
211.656910398819
 31
0.0
  0
LINE
  5
B9
330
1F
100
AcDbEntity
  8
0
  6
DASHED
 62
     7
100
AcDbLine
 10
-54.90174010232651
 20
168.156910398819
 30
0.0
 11
-74.00174010232641
 21
168.156910398819
 31
0.0
  0
LINE
  5
BA
330
1F
100
AcDbEntity
  8
0
  6
DASHED
 62
     7
100
AcDbLine
 10
-74.00174010232652
 20
190.4569103988192
 30
0.0
 11
-74.00174010232641
 21
168.156910398819
 31
0.0
  0
LINE
  5
BB
330
1F
100
AcDbEntity
  8
0
  6
DASHED
 62
     7
100
AcDbLine
 10
-59.25174010232641
 20
180.9962700298946
 30
0.0
 11
-59.25174010232641
 21
180.6828755685835
 31
0.0
  0
LINE
  5
BC
330
1F
100
AcDbEntity
  8
0
  6
DASHED
 62
     7
100
AcDbLine
 10
-59.25174010232641
 20
180.6828755685835
 30
0.0
 11
-59.25174010232641
 21
178.0309452290546
 31
0.0
  0
LINE
  5
BD
330
1F
100
AcDbEntity
  8
0
  6
DASHED
 62
     7
100
AcDbLine
 10
-59.25174010232641
 20
178.0309452290546
 30
0.0
 11
-59.25174010232641
 21
177.7175507677434
 31
0.0
  0
LINE
  5
BE
330
1F
100
AcDbEntity
  8
0
  6
DASHED
 62
     7
100
AcDbLine
 10
-58.35174010232656
 20
177.7175507677437
 30
0.0
 11
-58.35174010232644
 21
178.0309452290546
 31
0.0
  0
LINE
  5
BF
330
1F
100
AcDbEntity
  8
0
  6
DASHED
 62
     7
100
AcDbLine
 10
-58.35174010232644
 20
180.6828755685835
 30
0.0
 11
-58.35174010232644
 21
178.0309452290546
 31
0.0
  0
LINE
  5
C0
330
1F
100
AcDbEntity
  8
0
  6
DASHED
 62
     7
100
AcDbLine
 10
-58.35174010232644
 20
180.6828755685835
 30
0.0
 11
-58.35174010232644
 21
180.9962700298946
 31
0.0
  0
LINE
  5
C1
330
1F
100
AcDbEntity
  8
0
  6
DASHED
 62
     7
100
AcDbLine
 10
-70.55174010232648
 20
180.9962700298946
 30
0.0
 11
-70.55174010232648
 21
180.6828755685835
 31
0.0
  0
LINE
  5
C2
330
1F
100
AcDbEntity
  8
0
  6
DASHED
 62
     7
100
AcDbLine
 10
-70.55174010232648
 20
180.6828755685835
 30
0.0
 11
-70.55174010232648
 21
178.0309452290546
 31
0.0
  0
LINE
  5
C3
330
1F
100
AcDbEntity
  8
0
  6
DASHED
 62
     7
100
AcDbLine
 10
-70.55174010232648
 20
178.0309452290546
 30
0.0
 11
-70.55174010232648
 21
177.7175507677437
 31
0.0
  0
LINE
  5
C4
330
1F
100
AcDbEntity
  8
0
  6
DASHED
 62
     7
100
AcDbLine
 10
-69.6517401023265
 20
177.7175507677437
 30
0.0
 11
-69.6517401023265
 21
178.0309452290546
 31
0.0
  0
LINE
  5
C5
330
1F
100
AcDbEntity
  8
0
  6
DASHED
 62
     7
100
AcDbLine
 10
-69.6517401023265
 20
180.6828755685835
 30
0.0
 11
-69.6517401023265
 21
178.0309452290546
 31
0.0
  0
LINE
  5
C6
330
1F
100
AcDbEntity
  8
0
  6
DASHED
 62
     7
100
AcDbLine
 10
-69.6517401023265
 20
180.6828755685835
 30
0.0
 11
-69.6517401023265
 21
180.9962700298946
 31
0.0
  0
LINE
  5
C7
330
1F
100
AcDbEntity
  8
0
  6
Continuous
 62
     7
100
AcDbLine
 10
-56.35174010232656
 20
190.4569103988192
 30
0.0
 11
-53.95174010232658
 21
190.4569103988192
 31
0.0
  0
LINE
  5
C8
330
1F
100
AcDbEntity
  8
0
  6
Continuous
 62
     7
100
AcDbLine
 10
-53.95174010232658
 20
208.156910398819
 30
0.0
 11
-53.95174010232658
 21
190.4569103988192
 31
0.0
  0
LINE
  5
C9
330
1F
100
AcDbEntity
  8
0
  6
Continuous
 62
     7
100
AcDbLine
 10
-56.35174010232656
 20
208.156910398819
 30
0.0
 11
-56.35174010232656
 21
190.4569103988192
 31
0.0
  0
LINE
  5
CA
330
1F
100
AcDbEntity
  8
0
  6
Continuous
 62
     7
100
AcDbLine
 10
-72.55174010232648
 20
190.4569103988192
 30
0.0
 11
-74.95174010232645
 21
190.4569103988192
 31
0.0
  0
LINE
  5
CB
330
1F
100
AcDbEntity
  8
0
  6
Continuous
 62
     7
100
AcDbLine
 10
-53.95174010232658
 20
214.4569103988192
 30
0.0
 11
-74.95174010232645
 21
214.4569103988192
 31
0.0
  0
LINE
  5
CC
330
1F
100
AcDbEntity
  8
0
  6
Continuous
 62
     7
100
AcDbLine
 10
-67.55174010232648
 20
208.156910398819
 30
0.0
 11
-69.35174010232654
 21
208.156910398819
 31
0.0
  0
LINE
  5
CD
330
1F
100
AcDbEntity
  8
0
  6
Continuous
 62
     7
100
AcDbLine
 10
-54.80174010232649
 20
211.656910398819
 30
0.0
 11
-74.10174010232654
 21
211.656910398819
 31
0.0
  0
LINE
  5
CE
330
1F
100
AcDbEntity
  8
0
  6
Continuous
 62
     7
100
AcDbLine
 10
-74.10174010232654
 20
208.156910398819
 30
0.0
 11
-74.10174010232654
 21
211.656910398819
 31
0.0
  0
LINE
  5
CF
330
1F
100
AcDbEntity
  8
0
  6
Continuous
 62
     7
100
AcDbLine
 10
-56.35174010232656
 20
208.156910398819
 30
0.0
 11
-59.55174010232649
 21
208.156910398819
 31
0.0
  0
LINE
  5
D0
330
1F
100
AcDbEntity
  8
0
  6
Continuous
 62
     7
100
AcDbLine
 10
-59.55174010232649
 20
208.156910398819
 30
0.0
 11
-61.35174010232655
 21
208.156910398819
 31
0.0
  0
LINE
  5
D1
330
1F
100
AcDbEntity
  8
0
  6
Continuous
 62
     7
100
AcDbLine
 10
-56.35174010232656
 20
208.156910398819
 30
0.0
 11
-53.95174010232658
 21
208.156910398819
 31
0.0
  0
LINE
  5
D2
330
1F
100
AcDbEntity
  8
0
  6
Continuous
 62
     7
100
AcDbLine
 10
-69.35174010232654
 20
208.156910398819
 30
0.0
 11
-72.55174010232648
 21
208.156910398819
 31
0.0
  0
LINE
  5
D3
330
1F
100
AcDbEntity
  8
0
  6
Continuous
 62
     7
100
AcDbLine
 10
-61.35174010232655
 20
208.156910398819
 30
0.0
 11
-67.55174010232648
 21
208.156910398819
 31
0.0
  0
LINE
  5
D4
330
1F
100
AcDbEntity
  8
0
  6
Continuous
 62
     7
100
AcDbLine
 10
-72.55174010232648
 20
208.156910398819
 30
0.0
 11
-74.95174010232645
 21
208.156910398819
 31
0.0
  0
LINE
  5
D5
330
1F
100
AcDbEntity
  8
0
  6
Continuous
 62
     7
100
AcDbLine
 10
-54.80174010232649
 20
211.656910398819
 30
0.0
 11
-54.80174010232649
 21
208.156910398819
 31
0.0
  0
LINE
  5
D6
330
1F
100
AcDbEntity
  8
0
  6
Continuous
 62
     7
100
AcDbLine
 10
-53.95174010232658
 20
214.4569103988192
 30
0.0
 11
-53.95174010232658
 21
208.156910398819
 31
0.0
  0
LINE
  5
D7
330
1F
100
AcDbEntity
  8
0
  6
Continuous
 62
     7
100
AcDbLine
 10
-74.95174010232645
 20
190.4569103988192
 30
0.0
 11
-74.95174010232645
 21
208.156910398819
 31
0.0
  0
LINE
  5
D8
330
1F
100
AcDbEntity
  8
0
  6
Continuous
 62
     7
100
AcDbLine
 10
-74.95174010232645
 20
214.4569103988192
 30
0.0
 11
-74.95174010232645
 21
208.156910398819
 31
0.0
  0
LINE
  5
D9
330
1F
100
AcDbEntity
  8
0
  6
Continuous
 62
     7
100
AcDbLine
 10
-72.55174010232648
 20
208.156910398819
 30
0.0
 11
-72.55174010232648
 21
190.4569103988192
 31
0.0
  0
LINE
  5
DA
330
1F
100
AcDbEntity
  8
0
  6
Continuous
 62
     7
100
AcDbLine
 10
-61.35174010232655
 20
208.156910398819
 30
0.0
 11
-61.35174010232655
 21
192.3569103988191
 31
0.0
  0
LINE
  5
DB
330
1F
100
AcDbEntity
  8
0
  6
Continuous
 62
     7
100
AcDbLine
 10
-67.55174010232648
 20
208.156910398819
 30
0.0
 11
-67.55174010232648
 21
192.3569103988191
 31
0.0
  0
LINE
  5
DC
330
1F
100
AcDbEntity
  8
0
  6
Continuous
 62
     7
100
AcDbLine
 10
-69.35174010232654
 20
208.156910398819
 30
0.0
 11
-69.35174010232654
 21
192.3569103988191
 31
0.0
  0
LINE
  5
DD
330
1F
100
AcDbEntity
  8
0
  6
Continuous
 62
     7
100
AcDbLine
 10
-59.55174010232649
 20
192.3569103988191
 30
0.0
 11
-59.55174010232649
 21
208.156910398819
 31
0.0
  0
LINE
  5
DE
330
1F
100
AcDbEntity
  8
0
  6
Continuous
 62
     7
100
AcDbLine
 10
-69.35174010232654
 20
192.3569103988191
 30
0.0
 11
-59.55174010232649
 21
192.3569103988191
 31
0.0
  0
LINE
  5
DF
330
1F
100
AcDbEntity
  8
0
  6
Continuous
 62
     7
100
AcDbLine
 10
-56.35174010232656
 20
190.4569103988192
 30
0.0
 11
-72.55174010232648
 21
190.4569103988192
 31
0.0
  0
LINE
  5
E0
330
1F
100
AcDbEntity
  8
0
  6
Continuous
 62
     7
100
AcDbLine
 10
-67.55174010232648
 20
104.5869639967121
 30
0.0
 11
-69.35174010232643
 21
102.7869639967124
 31
0.0
  0
LINE
  5
E1
330
1F
100
AcDbEntity
  8
0
  6
Continuous
 62
     7
100
AcDbLine
 10
-59.55174010232649
 20
102.7869639967124
 30
0.0
 11
-61.35174010232655
 21
104.5869639967124
 31
0.0
  0
LINE
  5
E2
330
1F
100
AcDbEntity
  8
0
  6
Continuous
 62
     7
100
AcDbLine
 10
-61.35174010232655
 20
104.5869639967124
 30
0.0
 11
-67.55174010232648
 21
104.5869639967121
 31
0.0
  0
LINE
  5
E3
330
1F
100
AcDbEntity
  8
1
  6
Continuous
 62
     7
100
AcDbLine
 10
-59.55174010232649
 20
102.7869639967124
 30
0.0
 11
-61.75174010232664
 21
102.7869639967124
 31
0.0
  0
LINE
  5
E4
330
1F
100
AcDbEntity
  8
1
  6
Continuous
 62
     7
100
AcDbLine
 10
-69.35174010232643
 20
102.7869639967124
 30
0.0
 11
-67.15174010232661
 21
102.7869639967124
 31
0.0
  0
LINE
  5
E5
330
1F
100
AcDbEntity
  8
1
  6
Continuous
 62
     7
100
AcDbLine
 10
-148.3017401023266
 20
201.656910398819
 30
0.0
 11
-149.4517401023267
 21
200.506910398819
 31
0.0
  0
LINE
  5
E6
330
1F
100
AcDbEntity
  8
1
  6
Continuous
 62
     7
100
AcDbLine
 10
-149.4517401023267
 20
200.506910398819
 30
0.0
 11
-149.4517401023267
 21
208.206910398819
 31
0.0
  0
LINE
  5
E7
330
1F
100
AcDbEntity
  8
1
  6
Continuous
 62
     7
100
AcDbLine
 10
-150.1945471677855
 20
203.9569103988192
 30
0.0
 11
-149.4517401023267
 21
203.9569103988192
 31
0.0
  0
LINE
  5
E8
330
1F
100
AcDbEntity
  8
1
  6
Continuous
 62
     7
100
AcDbLine
 10
-149.4517401023267
 20
204.7569103988192
 30
0.0
 11
-150.1945471677852
 21
204.7569103988192
 31
0.0
  0
LINE
  5
E9
330
1F
100
AcDbEntity
  8
1
  6
Continuous
 62
     7
100
AcDbLine
 10
-149.4517401023267
 20
208.206910398819
 30
0.0
 11
-148.3017401023266
 21
207.0569103988191
 31
0.0
  0
LINE
  5
EA
330
1F
100
AcDbEntity
  8
1
  6
Continuous
 62
     7
100
AcDbLine
 10
-62.85174010232667
 20
103.8869639967123
 30
0.0
 11
-60.60174010232667
 21
101.6369639967123
 31
0.0
  0
LINE
  5
EB
330
1F
100
AcDbEntity
  8
1
  6
Continuous
 62
     7
100
AcDbLine
 10
-64.05174010232636
 20
100.8941569312536
 30
0.0
 11
-64.05174010232636
 21
101.6369639967123
 31
0.0
  0
LINE
  5
EC
330
1F
100
AcDbEntity
  8
1
  6
Continuous
 62
     7
100
AcDbLine
 10
-64.85174010232654
 20
101.6369639967123
 30
0.0
 11
-64.85174010232654
 21
100.8941569312536
 31
0.0
  0
LINE
  5
ED
330
1F
100
AcDbEntity
  8
1
  6
Continuous
 62
     7
100
AcDbLine
 10
-60.60174010232667
 20
101.6369639967123
 30
0.0
 11
-68.30174010232659
 21
101.6369639967123
 31
0.0
  0
LINE
  5
EE
330
1F
100
AcDbEntity
  8
1
  6
Continuous
 62
     7
100
AcDbLine
 10
-68.30174010232659
 20
101.6369639967123
 30
0.0
 11
-66.05174010232659
 21
103.8869639967123
 31
0.0
  0
LINE
  5
EF
330
1F
100
AcDbEntity
  8
1
  6
Continuous
 62
     7
100
AcDbLine
 10
-66.05174010232659
 20
104.5869639967121
 30
0.0
 11
-66.05174010232659
 21
103.8869639967123
 31
0.0
  0
LINE
  5
F0
330
1F
100
AcDbEntity
  8
1
  6
Continuous
 62
     7
100
AcDbLine
 10
-62.85174010232667
 20
104.5869639967121
 30
0.0
 11
-62.85174010232667
 21
103.8869639967123
 31
0.0
  0
LINE
  5
F1
330
1F
100
AcDbEntity
  8
1
  6
Continuous
 62
     7
100
AcDbLine
 10
-66.05174010232659
 20
103.8869639967123
 30
0.0
 11
-62.85174010232667
 21
103.8869639967123
 31
0.0
  0
LINE
  5
F2
330
1F
100
AcDbEntity
  8
0
  6
Continuous
 62
     7
100
AcDbLine
 10
-72.45174010232645
 20
123.7869639967124
 30
0.0
 11
-56.45174010232658
 21
123.7869639967124
 31
0.0
  0
LINE
  5
F3
330
1F
100
AcDbEntity
  8
0
  6
Continuous
 62
     7
100
AcDbLine
 10
-53.95174010232646
 20
105.1869639967124
 30
0.0
 11
-53.95174010232658
 21
108.3869639967123
 31
0.0
  0
LINE
  5
F4
330
1F
100
AcDbEntity
  8
0
  6
Continuous
 62
     7
100
AcDbLine
 10
-73.45174010232645
 20
110.9869639967122
 30
0.0
 11
-73.45174010232645
 21
123.6118235428411
 31
0.0
  0
LINE
  5
F5
330
1F
100
AcDbEntity
  8
0
  6
Continuous
 62
     7
100
AcDbLine
 10
-74.95174010232645
 20
114.5369639967124
 30
0.0
 11
-74.95174010232645
 21
110.9869639967122
 31
0.0
  0
LINE
  5
F6
330
1F
100
AcDbEntity
  8
0
  6
Continuous
 62
     7
100
AcDbLine
 10
-55.45174010232658
 20
110.9869639967122
 30
0.0
 11
-55.45174010232646
 21
123.6118235428411
 31
0.0
  0
LINE
  5
F7
330
1F
100
AcDbEntity
  8
0
  6
Continuous
 62
     7
100
AcDbLine
 10
-53.95174010232641
 20
110.9869639967122
 30
0.0
 11
-55.45174010232658
 21
110.9869639967122
 31
0.0
  0
LINE
  5
F8
330
1F
100
AcDbEntity
  8
0
  6
Continuous
 62
     7
100
AcDbLine
 10
-53.95174010232658
 20
119.6369639967123
 30
0.0
 11
-53.95174010232646
 21
121.3869639967124
 31
0.0
  0
LINE
  5
F9
330
1F
100
AcDbEntity
  8
0
  6
Continuous
 62
     7
100
AcDbLine
 10
-55.45174010232658
 20
114.5369639967124
 30
0.0
 11
-53.95174010232658
 21
114.5369639967124
 31
0.0
  0
LINE
  5
FA
330
1F
100
AcDbEntity
  8
0
  6
Continuous
 62
     7
100
AcDbLine
 10
-53.95174010232641
 20
110.9869639967122
 30
0.0
 11
-53.95174010232658
 21
114.5369639967124
 31
0.0
  0
LINE
  5
FB
330
1F
100
AcDbEntity
  8
0
  6
Continuous
 62
     7
100
AcDbLine
 10
-53.95174010232658
 20
119.6369639967123
 30
0.0
 11
-55.45174010232658
 21
119.6369639967123
 31
0.0
  0
LINE
  5
FC
330
1F
100
AcDbEntity
  8
0
  6
Continuous
 62
     7
100
AcDbLine
 10
-53.95174010232658
 20
108.3869639967123
 30
0.0
 11
-53.95174010232641
 21
110.9869639967122
 31
0.0
  0
LINE
  5
FD
330
1F
100
AcDbEntity
  8
0
  6
Continuous
 62
     7
100
AcDbLine
 10
-53.95174010232658
 20
114.5369639967124
 30
0.0
 11
-53.95174010232658
 21
119.6369639967123
 31
0.0
  0
LINE
  5
FE
330
1F
100
AcDbEntity
  8
0
  6
Continuous
 62
     7
100
AcDbLine
 10
-74.95174010232645
 20
121.3869639967124
 30
0.0
 11
-74.95174010232645
 21
119.6369639967123
 31
0.0
  0
LINE
  5
FF
330
1F
100
AcDbEntity
  8
0
  6
Continuous
 62
     7
100
AcDbLine
 10
-74.95174010232645
 20
119.6369639967123
 30
0.0
 11
-74.95174010232645
 21
114.5369639967124
 31
0.0
  0
LINE
  5
100
330
1F
100
AcDbEntity
  8
0
  6
Continuous
 62
     7
100
AcDbLine
 10
-73.45174010232645
 20
119.6369639967123
 30
0.0
 11
-74.95174010232645
 21
119.6369639967123
 31
0.0
  0
LINE
  5
101
330
1F
100
AcDbEntity
  8
0
  6
Continuous
 62
     7
100
AcDbLine
 10
-73.45174010232645
 20
114.5369639967124
 30
0.0
 11
-74.95174010232645
 21
114.5369639967124
 31
0.0
  0
LINE
  5
102
330
1F
100
AcDbEntity
  8
0
  6
Continuous
 62
     7
100
AcDbLine
 10
-56.35174010232644
 20
102.7869639967124
 30
0.0
 11
-59.55174010232649
 21
102.7869639967124
 31
0.0
  0
LINE
  5
103
330
1F
100
AcDbEntity
  8
0
  6
Continuous
 62
     7
100
AcDbLine
 10
-69.35174010232643
 20
102.7869639967124
 30
0.0
 11
-72.55174010232648
 21
102.7869639967124
 31
0.0
  0
LINE
  5
104
330
1F
100
AcDbEntity
  8
0
  6
Continuous
 62
     7
100
AcDbLine
 10
-74.95174010232645
 20
110.9869639967122
 30
0.0
 11
-74.95174010232645
 21
108.3869639967123
 31
0.0
  0
LINE
  5
105
330
1F
100
AcDbEntity
  8
0
  6
Continuous
 62
     7
100
AcDbLine
 10
-74.95174010232645
 20
108.3869639967123
 30
0.0
 11
-74.95174010232645
 21
105.1869639967124
 31
0.0
  0
LINE
  5
106
330
1F
100
AcDbEntity
  8
0
  6
Continuous
 62
     7
100
AcDbLine
 10
-72.55174010232648
 20
123.7869639967124
 30
0.0
 11
-56.35174010232644
 21
123.7869639967124
 31
0.0
  0
LINE
  5
107
330
1F
100
AcDbEntity
  8
1
  6
Continuous
 62
     7
100
AcDbLine
 10
-74.95174010232645
 20
108.3869639967123
 30
0.0
 11
-53.95174010232658
 21
108.3869639967123
 31
0.0
  0
LINE
  5
108
330
1F
100
AcDbEntity
  8
1
  6
Continuous
 62
     2
100
AcDbLine
 10
-64.1517401023265
 20
107.006579238983
 30
0.0
 11
-64.40843883213736
 21
106.5619639967124
 31
0.0
  0
LINE
  5
109
330
1F
100
AcDbEntity
  8
1
  6
Continuous
 62
     2
100
AcDbLine
 10
-64.495041372516
 20
106.5619639967124
 30
0.0
 11
-64.75174010232652
 21
107.0065792389831
 31
0.0
  0
LINE
  5
10A
330
1F
100
AcDbEntity
  8
1
  6
Continuous
 62
     2
100
AcDbLine
 10
-66.97667068486899
 20
106.5302732760148
 30
0.0
 11
-64.45174010232657
 21
107.9869639967122
 31
0.0
  0
LINE
  5
10B
330
1F
100
AcDbEntity
  8
1
  6
Continuous
 62
     2
100
AcDbLine
 10
-64.45174010232657
 20
107.9869639967122
 30
0.0
 11
-61.92680951978392
 21
106.5302732760148
 31
0.0
  0
LINE
  5
10C
330
1F
100
AcDbEntity
  8
1
  6
Continuous
 62
     2
100
AcDbLine
 10
-61.92680951978392
 20
106.4436547174099
 30
0.0
 11
-64.45174010232657
 21
104.9869639967122
 31
0.0
  0
LINE
  5
10D
330
1F
100
AcDbEntity
  8
1
  6
Continuous
 62
     2
100
AcDbLine
 10
-64.45174010232657
 20
104.9869639967122
 30
0.0
 11
-66.97667068486899
 21
106.4436547174099
 31
0.0
  0
LINE
  5
10E
330
1F
100
AcDbEntity
  8
1
  6
Continuous
 62
     2
100
AcDbLine
 10
-64.80340999723936
 20
107.4960741221942
 30
0.0
 11
-64.45174010232657
 21
106.8869639967123
 31
0.0
  0
LINE
  5
10F
330
1F
100
AcDbEntity
  8
1
  6
Continuous
 62
     2
100
AcDbLine
 10
-64.95174010232645
 20
107.4563291903226
 30
0.0
 11
-64.95174010232645
 21
105.9912395185023
 31
0.0
  0
LINE
  5
110
330
1F
100
AcDbEntity
  8
1
  6
Continuous
 62
     2
100
AcDbLine
 10
-64.75174010232641
 20
105.9912395185023
 30
0.0
 11
-64.75174010232652
 21
107.0065792389831
 31
0.0
  0
LINE
  5
111
330
1F
100
AcDbEntity
  8
1
  6
Continuous
 62
     2
100
AcDbLine
 10
-64.1517401023265
 20
107.006579238983
 30
0.0
 11
-64.1517401023265
 21
105.5294447178929
 31
0.0
  0
LINE
  5
112
330
1F
100
AcDbEntity
  8
1
  6
Continuous
 62
     2
100
AcDbLine
 10
-63.95174010232646
 20
105.5294447178929
 30
0.0
 11
-63.95174010232646
 21
107.4563291903226
 31
0.0
  0
LINE
  5
113
330
1F
100
AcDbEntity
  8
1
  6
Continuous
 62
     2
100
AcDbLine
 10
-64.10007020741355
 20
107.4960741221942
 30
0.0
 11
-64.45174010232657
 21
106.8869639967123
 31
0.0
  0
LINE
  5
114
330
1F
100
AcDbEntity
  8
1
  6
Continuous
 62
     2
100
AcDbLine
 10
-65.35174010232643
 20
105.8179703411222
 30
0.0
 11
-65.35174010232643
 21
107.2137140447626
 31
0.0
  0
LINE
  5
115
330
1F
100
AcDbEntity
  8
1
  6
Continuous
 62
     2
100
AcDbLine
 10
-65.1517401023265
 20
107.2137140447626
 30
0.0
 11
-65.1517401023265
 21
105.8179703411222
 31
0.0
  0
LINE
  5
116
330
1F
100
AcDbEntity
  8
1
  6
Continuous
 62
     2
100
AcDbLine
 10
-65.1517401023265
 20
105.8179703411222
 30
0.0
 11
-64.50176785697741
 21
105.4429863534209
 31
0.0
  0
LINE
  5
117
330
1F
100
AcDbEntity
  8
1
  6
Continuous
 62
     2
100
AcDbLine
 10
-64.60171234767543
 20
105.2697492362111
 30
0.0
 11
-65.25168459302441
 21
105.6447332239125
 31
0.0
  0
LINE
  5
118
330
1F
100
AcDbEntity
  8
1
  6
Continuous
 62
     2
100
AcDbLine
 10
-65.55174010232636
 20
106.9829448139934
 30
0.0
 11
-65.55174010232636
 21
105.9909831794314
 31
0.0
  0
LINE
  5
119
330
1F
100
AcDbEntity
  8
1
  6
Continuous
 62
     2
100
AcDbLine
 10
-65.75174010232641
 20
105.9909831794314
 30
0.0
 11
-65.75174010232641
 21
106.9829448139934
 31
0.0
  0
LINE
  5
11A
330
1F
100
AcDbEntity
  8
1
  6
Continuous
 62
     2
100
AcDbLine
 10
-63.60176785697744
 20
107.3003326033675
 30
0.0
 11
-63.20176785697746
 21
107.0695633725984
 31
0.0
  0
LINE
  5
11B
330
1F
100
AcDbEntity
  8
1
  6
Continuous
 62
     2
100
AcDbLine
 10
-63.30171234767537
 20
106.8963262553885
 30
0.0
 11
-63.55174010232637
 21
107.0405730369179
 31
0.0
  0
LINE
  5
11C
330
1F
100
AcDbEntity
  8
1
  6
Continuous
 62
     2
100
AcDbLine
 10
-63.55174010232637
 20
107.0405730369179
 30
0.0
 11
-63.5517401023266
 21
106.5869639967124
 31
0.0
  0
LINE
  5
11D
330
1F
100
AcDbEntity
  8
1
  6
Continuous
 62
     2
100
AcDbLine
 10
-63.5517401023266
 20
106.5869639967124
 30
0.0
 11
-63.25174010232642
 21
106.5869639967123
 31
0.0
  0
LINE
  5
11E
330
1F
100
AcDbEntity
  8
1
  6
Continuous
 62
     2
100
AcDbLine
 10
-63.25174010232642
 20
106.3869639967124
 30
0.0
 11
-63.55174010232637
 21
106.3869639967123
 31
0.0
  0
LINE
  5
11F
330
1F
100
AcDbEntity
  8
1
  6
Continuous
 62
     2
100
AcDbLine
 10
-63.55174010232637
 20
106.3869639967123
 30
0.0
 11
-63.55174010232637
 21
105.9333549565068
 31
0.0
  0
LINE
  5
120
330
1F
100
AcDbEntity
  8
1
  6
Continuous
 62
     2
100
AcDbLine
 10
-63.55174010232637
 20
105.9333549565068
 30
0.0
 11
-63.30171234767537
 21
106.0776017380363
 31
0.0
  0
LINE
  5
121
330
1F
100
AcDbEntity
  8
1
  6
Continuous
 62
     2
100
AcDbLine
 10
-63.20176785697746
 20
105.9043646208265
 30
0.0
 11
-63.60176785697744
 21
105.6735953900572
 31
0.0
  0
LINE
  5
122
330
1F
100
AcDbEntity
  8
1
  6
Continuous
 62
     2
100
AcDbLine
 10
-63.75174010232642
 20
105.7602139486621
 30
0.0
 11
-63.75174010232642
 21
107.2137140447626
 31
0.0
  0
LINE
  5
123
330
1F
100
AcDbEntity
  8
0
  6
DASHED
 62
     7
100
AcDbLine
 10
-70.45174010232645
 20
120.9369639967125
 30
0.0
 11
-70.45174010232645
 21
114.0369639967124
 31
0.0
  0
LINE
  5
124
330
1F
100
AcDbEntity
  8
0
  6
DASHED
 62
     7
100
AcDbLine
 10
-58.45174010232658
 20
114.0369639967124
 30
0.0
 11
-58.45174010232658
 21
120.9369639967125
 31
0.0
  0
LINE
  5
125
330
1F
100
AcDbEntity
  8
0
  6
DASHED
 62
     7
100
AcDbLine
 10
-67.60174010232654
 20
114.0369639967124
 30
0.0
 11
-70.45174010232645
 21
114.0369639967124
 31
0.0
  0
LINE
  5
126
330
1F
100
AcDbEntity
  8
0
  6
DASHED
 62
     7
100
AcDbLine
 10
-58.45174010232658
 20
114.0369639967124
 30
0.0
 11
-61.30174010232648
 21
114.0369639967124
 31
0.0
  0
LINE
  5
127
330
1F
100
AcDbEntity
  8
0
  6
Continuous
 62
     7
100
AcDbLine
 10
-72.45174010232645
 20
123.7869639967124
 30
0.0
 11
-56.45174010232658
 21
123.7869639967124
 31
0.0
  0
LINE
  5
128
330
1F
100
AcDbEntity
  8
0
  6
DASHED
 62
     7
100
AcDbLine
 10
-66.45174010232657
 20
110.7869639967124
 30
0.0
 11
-66.45174010232657
 21
112.0869639967124
 31
0.0
  0
LINE
  5
129
330
1F
100
AcDbEntity
  8
0
  6
DASHED
 62
     7
100
AcDbLine
 10
-66.45174010232657
 20
112.0869639967124
 30
0.0
 11
-67.60174010232654
 21
112.0869639967124
 31
0.0
  0
LINE
  5
12A
330
1F
100
AcDbEntity
  8
0
  6
DASHED
 62
     7
100
AcDbLine
 10
-61.30174010232648
 20
112.0869639967124
 30
0.0
 11
-62.45174010232658
 21
112.0869639967124
 31
0.0
  0
LINE
  5
12B
330
1F
100
AcDbEntity
  8
0
  6
DASHED
 62
     7
100
AcDbLine
 10
-62.45174010232658
 20
110.7869639967124
 30
0.0
 11
-66.45174010232657
 21
110.7869639967124
 31
0.0
  0
LINE
  5
12C
330
1F
100
AcDbEntity
  8
0
  6
DASHED
 62
     7
100
AcDbLine
 10
-58.45174010232658
 20
120.9369639967125
 30
0.0
 11
-70.45174010232645
 21
120.9369639967125
 31
0.0
  0
LINE
  5
12D
330
1F
100
AcDbEntity
  8
0
  6
DASHED
 62
     7
100
AcDbLine
 10
-62.45174010232658
 20
112.0869639967124
 30
0.0
 11
-62.45174010232658
 21
110.7869639967124
 31
0.0
  0
LINE
  5
12E
330
1F
100
AcDbEntity
  8
2
  6
DASHED
 62
     7
100
AcDbLine
 10
-61.90174010232651
 20
119.9344439967125
 30
0.0
 11
-61.90174010232651
 21
120.9369639967125
 31
0.0
  0
LINE
  5
12F
330
1F
100
AcDbEntity
  8
2
  6
DASHED
 62
     7
100
AcDbLine
 10
-60.88174010232653
 20
119.9344439967125
 30
0.0
 11
-60.88174010232653
 21
120.9369639967125
 31
0.0
  0
LINE
  5
130
330
1F
100
AcDbEntity
  8
2
  6
DASHED
 62
     7
100
AcDbLine
 10
-67.00174010232652
 20
119.9369639967125
 30
0.0
 11
-67.00174010232652
 21
120.9369639967125
 31
0.0
  0
LINE
  5
131
330
1F
100
AcDbEntity
  8
2
  6
DASHED
 62
     7
100
AcDbLine
 10
-68.0217401023265
 20
119.9369639967125
 30
0.0
 11
-68.0217401023265
 21
120.9369639967125
 31
0.0
  0
LINE
  5
132
330
1F
100
AcDbEntity
  8
2
  6
DASHED
 62
     7
100
AcDbLine
 10
-63.94174010232647
 20
119.9344439967125
 30
0.0
 11
-63.94174010232647
 21
120.9369639967125
 31
0.0
  0
LINE
  5
133
330
1F
100
AcDbEntity
  8
2
  6
DASHED
 62
     7
100
AcDbLine
 10
-62.92174010232649
 20
119.9344439967125
 30
0.0
 11
-62.92174010232649
 21
120.9369639967125
 31
0.0
  0
LINE
  5
134
330
1F
100
AcDbEntity
  8
2
  6
DASHED
 62
     7
100
AcDbLine
 10
-64.96174010232656
 20
119.9344439967125
 30
0.0
 11
-64.96174010232656
 21
120.9369639967125
 31
0.0
  0
LINE
  5
135
330
1F
100
AcDbEntity
  8
2
  6
DASHED
 62
     7
100
AcDbLine
 10
-65.98174010232654
 20
119.9344439967125
 30
0.0
 11
-65.98174010232654
 21
120.9369639967125
 31
0.0
  0
LINE
  5
136
330
1F
100
AcDbEntity
  8
2
  6
DASHED
 62
     7
100
AcDbLine
 10
-59.87674010232654
 20
114.0369639967124
 30
0.0
 11
-59.87674010232654
 21
115.0394839967124
 31
0.0
  0
LINE
  5
137
330
1F
100
AcDbEntity
  8
1
  6
DASHED
 62
     7
100
AcDbLine
 10
-61.30174010232648
 20
112.0869639967124
 30
0.0
 11
-61.30174010232648
 21
115.0394839967124
 31
0.0
  0
LINE
  5
138
330
1F
100
AcDbEntity
  8
1
  6
DASHED
 62
     7
100
AcDbLine
 10
-61.30174010232648
 20
115.0394839967124
 30
0.0
 11
-58.45174010232658
 21
115.0394839967124
 31
0.0
  0
LINE
  5
139
330
1F
100
AcDbEntity
  8
2
  6
DASHED
 62
     7
100
AcDbLine
 10
-69.0267401023265
 20
115.0369639967124
 30
0.0
 11
-69.0267401023265
 21
114.0369639967124
 31
0.0
  0
LINE
  5
13A
330
1F
100
AcDbEntity
  8
1
  6
DASHED
 62
     7
100
AcDbLine
 10
-70.45174010232645
 20
115.0394839967124
 30
0.0
 11
-67.60174010232654
 21
115.0394839967124
 31
0.0
  0
LINE
  5
13B
330
1F
100
AcDbEntity
  8
1
  6
DASHED
 62
     7
100
AcDbLine
 10
-67.60174010232654
 20
115.0394839967124
 30
0.0
 11
-67.60174010232654
 21
112.0869639967124
 31
0.0
  0
LINE
  5
13C
330
1F
100
AcDbEntity
  8
0
  6
Continuous
 62
     7
100
AcDbLine
 10
-57.45174010232646
 20
121.7869639967124
 30
0.0
 11
-71.45174010232645
 21
121.7869639967124
 31
0.0
  0
LINE
  5
13D
330
1F
100
AcDbEntity
  8
0
  6
Continuous
 62
     7
100
AcDbLine
 10
-71.45174010232645
 20
121.7869639967124
 30
0.0
 11
-71.45174010232645
 21
110.3869639967123
 31
0.0
  0
LINE
  5
13E
330
1F
100
AcDbEntity
  8
0
  6
Continuous
 62
     7
100
AcDbLine
 10
-71.45174010232645
 20
110.3869639967123
 30
0.0
 11
-57.45174010232658
 21
110.3869639967123
 31
0.0
  0
LINE
  5
13F
330
1F
100
AcDbEntity
  8
0
  6
Continuous
 62
     7
100
AcDbLine
 10
-57.45174010232658
 20
110.3869639967123
 30
0.0
 11
-57.45174010232646
 21
121.7869639967124
 31
0.0
  0
LINE
  5
140
330
1F
100
AcDbEntity
  8
0
  6
DASHED
 62
     7
100
AcDbLine
 10
-127.3017401023265
 20
168.3569103988191
 30
0.0
 11
-127.3017401023265
 21
189.756910398819
 31
0.0
  0
LINE
  5
141
330
1F
100
AcDbEntity
  8
0
  6
DASHED
 62
     7
100
AcDbLine
 10
-141.1017401023266
 20
190.4569103988192
 30
0.0
 11
-141.1017401023266
 21
168.3569103988191
 31
0.0
  0
LINE
  5
142
330
1F
100
AcDbEntity
  8
0
  6
DASHED
 62
     7
100
AcDbLine
 10
-144.4017401023265
 20
180.8828755685836
 30
0.0
 11
-144.4017401023341
 21
178.2309452290397
 31
0.0
  0
LINE
  5
143
330
1F
100
AcDbEntity
  8
0
  6
DASHED
 62
     7
100
AcDbLine
 10
-142.7017401023275
 20
181.1962700298966
 30
0.0
 11
-142.7017401023265
 21
190.4569103988192
 31
0.0
  0
LINE
  5
144
330
1F
100
AcDbEntity
  8
0
  6
DASHED
 62
     7
100
AcDbLine
 10
-142.7017401023265
 20
177.9175507677435
 30
0.0
 11
-142.7017401023275
 21
181.1962700298966
 31
0.0
  0
LINE
  5
145
330
1F
100
AcDbEntity
  8
0
  6
DASHED
 62
     7
100
AcDbLine
 10
-142.7017401023265
 20
168.3569103988191
 30
0.0
 11
-142.7017401023265
 21
177.9175507677435
 31
0.0
  0
LINE
  5
146
330
1F
100
AcDbEntity
  8
0
  6
DASHED
 62
     7
100
AcDbLine
 10
-142.7017401023265
 20
168.3569103988191
 30
0.0
 11
-141.1017401023266
 21
168.3569103988191
 31
0.0
  0
LINE
  5
147
330
1F
100
AcDbEntity
  8
0
  6
DASHED
 62
     7
100
AcDbLine
 10
-140.6017401023265
 20
176.8569103988191
 30
0.0
 11
-140.6017401023265
 21
181.656910398819
 31
0.0
  0
LINE
  5
148
330
1F
100
AcDbEntity
  8
0
  6
DASHED
 62
     7
100
AcDbLine
 10
-140.6017401023265
 20
168.3569103988191
 30
0.0
 11
-140.6017401023265
 21
171.3569103988191
 31
0.0
  0
LINE
  5
149
330
1F
100
AcDbEntity
  8
0
  6
DASHED
 62
     7
100
AcDbLine
 10
-127.3017401023265
 20
168.3569103988191
 30
0.0
 11
-140.6017401023265
 21
168.3569103988191
 31
0.0
  0
LINE
  5
14A
330
1F
100
AcDbEntity
  8
0
  6
DASHED
 62
     7
100
AcDbLine
 10
-127.3017401023265
 20
189.756910398819
 30
0.0
 11
-140.1017401023266
 21
189.7569103988193
 31
0.0
  0
LINE
  5
14B
330
1F
100
AcDbEntity
  8
0
  6
DASHED
 62
     7
100
AcDbLine
 10
-140.6017401023265
 20
171.3569103988191
 30
0.0
 11
-141.1017401023265
 21
171.3569103988191
 31
0.0
  0
LINE
  5
14C
330
1F
100
AcDbEntity
  8
0
  6
DASHED
 62
     7
100
AcDbLine
 10
-140.6017401023265
 20
181.656910398819
 30
0.0
 11
-141.1017401023265
 21
181.656910398819
 31
0.0
  0
LINE
  5
14D
330
1F
100
AcDbEntity
  8
0
  6
DASHED
 62
     7
100
AcDbLine
 10
-141.1017401023265
 20
183.5569103988191
 30
0.0
 11
-140.1017401023265
 21
183.5569103988191
 31
0.0
  0
LINE
  5
14E
330
1F
100
AcDbEntity
  8
0
  6
DASHED
 62
     7
100
AcDbLine
 10
-140.1017401023265
 20
183.5569103988191
 30
0.0
 11
-140.1017401023266
 21
189.7569103988193
 31
0.0
  0
LINE
  5
14F
330
1F
100
AcDbEntity
  8
0
  6
DASHED
 62
     7
100
AcDbLine
 10
-141.1017401023265
 20
176.8569103988191
 30
0.0
 11
-140.6017401023265
 21
176.8569103988191
 31
0.0
  0
LINE
  5
150
330
1F
100
AcDbEntity
  8
1
  6
DASHED
 62
     7
100
AcDbLine
 10
-137.1017401023265
 20
188.756910398819
 30
0.0
 11
-137.1017401023265
 21
187.756910398819
 31
0.0
  0
LINE
  5
151
330
1F
100
AcDbEntity
  8
1
  6
DASHED
 62
     7
100
AcDbLine
 10
-138.1017401023265
 20
188.756910398819
 30
0.0
 11
-137.1017401023265
 21
188.756910398819
 31
0.0
  0
LINE
  5
152
330
1F
100
AcDbEntity
  8
1
  6
DASHED
 62
     7
100
AcDbLine
 10
-138.1017401023265
 20
187.756910398819
 30
0.0
 11
-138.1017401023265
 21
188.756910398819
 31
0.0
  0
LINE
  5
153
330
1F
100
AcDbEntity
  8
1
  6
DASHED
 62
     7
100
AcDbLine
 10
-137.1017401023265
 20
187.756910398819
 30
0.0
 11
-138.1017401023265
 21
187.756910398819
 31
0.0
  0
LINE
  5
154
330
1F
100
AcDbEntity
  8
1
  6
DASHED
 62
     7
100
AcDbLine
 10
-130.3017401023266
 20
186.756910398819
 30
0.0
 11
-140.1017401023265
 21
186.756910398819
 31
0.0
  0
LINE
  5
155
330
1F
100
AcDbEntity
  8
1
  6
DASHED
 62
     7
100
AcDbLine
 10
-130.3017401023266
 20
185.756910398819
 30
0.0
 11
-140.1017401023265
 21
185.756910398819
 31
0.0
  0
LINE
  5
156
330
1F
100
AcDbEntity
  8
1
  6
DASHED
 62
     7
100
AcDbLine
 10
-130.3017401023266
 20
186.756910398819
 30
0.0
 11
-130.3017401023266
 21
179.756910398819
 31
0.0
  0
LINE
  5
157
330
1F
100
AcDbEntity
  8
1
  6
DASHED
 62
     7
100
AcDbLine
 10
-130.3017401023266
 20
186.756910398819
 30
0.0
 11
-127.3017401023265
 21
189.756910398819
 31
0.0
  0
LINE
  5
158
330
1F
100
AcDbEntity
  8
1
  6
DASHED
 62
     7
100
AcDbLine
 10
-130.3017401023266
 20
179.756910398819
 30
0.0
 11
-127.3017401023265
 21
176.756910398819
 31
0.0
  0
LINE
  5
159
330
1F
100
AcDbEntity
  8
1
  6
DASHED
 62
     7
100
AcDbLine
 10
-140.1017401023265
 20
189.9569103988192
 30
0.0
 11
-140.1017401023265
 21
190.4569103988192
 31
0.0
  0
LINE
  5
15A
330
1F
100
AcDbEntity
  8
0
  6
Continuous
 62
     7
100
AcDbLine
 10
-148.3017401023266
 20
208.156910398819
 30
0.0
 11
-142.7017401023265
 21
208.156910398819
 31
0.0
  0
LINE
  5
15B
330
1F
100
AcDbEntity
  8
0
  6
Continuous
 62
     7
100
AcDbLine
 10
-127.3017401023265
 20
190.4569103988192
 30
0.0
 11
-148.3017401023266
 21
190.4569103988192
 31
0.0
  0
LINE
  5
15C
330
1F
100
AcDbEntity
  8
0
  6
Continuous
 62
     7
100
AcDbLine
 10
-140.9017401023265
 20
205.656910398819
 30
0.0
 11
-140.9017401023265
 21
202.756910398819
 31
0.0
  0
LINE
  5
15D
330
1F
100
AcDbEntity
  8
0
  6
Continuous
 62
     7
100
AcDbLine
 10
-136.5517401023266
 20
200.9569103988192
 30
0.0
 11
-136.5517401023266
 21
206.4841807213099
 31
0.0
  0
LINE
  5
15E
330
1F
100
AcDbEntity
  8
0
  6
Continuous
 62
     7
100
AcDbLine
 10
-131.4517401023265
 20
206.4841807213099
 30
0.0
 11
-131.4517401023265
 21
200.9569103988192
 31
0.0
  0
LINE
  5
15F
330
1F
100
AcDbEntity
  8
0
  6
Continuous
 62
     7
100
AcDbLine
 10
-127.3017401023265
 20
190.4569103988192
 30
0.0
 11
-127.3017401023265
 21
214.4569103988192
 31
0.0
  0
LINE
  5
160
330
1F
100
AcDbEntity
  8
0
  6
Continuous
 62
     7
100
AcDbLine
 10
-142.7017401023265
 20
202.756910398819
 30
0.0
 11
-140.9017401023265
 21
202.756910398819
 31
0.0
  0
LINE
  5
161
330
1F
100
AcDbEntity
  8
0
  6
Continuous
 62
     7
100
AcDbLine
 10
-142.7017401023265
 20
202.756910398819
 30
0.0
 11
-142.7017401023265
 21
205.656910398819
 31
0.0
  0
LINE
  5
162
330
1F
100
AcDbEntity
  8
0
  6
Continuous
 62
     7
100
AcDbLine
 10
-131.4517401023265
 20
200.9569103988192
 30
0.0
 11
-136.5517401023266
 21
200.9569103988192
 31
0.0
  0
LINE
  5
163
330
1F
100
AcDbEntity
  8
0
  6
Continuous
 62
     7
100
AcDbLine
 10
-137.4517401023265
 20
209.9569103988192
 30
0.0
 11
-136.5517401023266
 21
209.9569103988192
 31
0.0
  0
LINE
  5
164
330
1F
100
AcDbEntity
  8
0
  6
Continuous
 62
     7
100
AcDbLine
 10
-130.5517401023266
 20
209.9569103988192
 30
0.0
 11
-130.5517401023266
 21
208.9569103988192
 31
0.0
  0
LINE
  5
165
330
1F
100
AcDbEntity
  8
0
  6
Continuous
 62
     7
100
AcDbLine
 10
-136.5517401023266
 20
209.9569103988192
 30
0.0
 11
-136.5517401023266
 21
211.4569103988192
 31
0.0
  0
LINE
  5
166
330
1F
100
AcDbEntity
  8
0
  6
Continuous
 62
     7
100
AcDbLine
 10
-131.4517401023265
 20
209.9569103988192
 30
0.0
 11
-130.5517401023266
 21
209.9569103988192
 31
0.0
  0
LINE
  5
167
330
1F
100
AcDbEntity
  8
0
  6
Continuous
 62
     7
100
AcDbLine
 10
-131.4517401023265
 20
211.4569103988192
 30
0.0
 11
-127.4768805561978
 21
211.4569103988192
 31
0.0
  0
LINE
  5
168
330
1F
100
AcDbEntity
  8
0
  6
Continuous
 62
     7
100
AcDbLine
 10
-131.4517401023265
 20
211.4569103988192
 30
0.0
 11
-131.4517401023265
 21
209.9569103988192
 31
0.0
  0
LINE
  5
169
330
1F
100
AcDbEntity
  8
0
  6
Continuous
 62
     7
100
AcDbLine
 10
-137.4517401023265
 20
208.956910398819
 30
0.0
 11
-137.4517401023265
 21
209.9569103988192
 31
0.0
  0
LINE
  5
16A
330
1F
100
AcDbEntity
  8
0
  6
Continuous
 62
     7
100
AcDbLine
 10
-140.1017401023266
 20
211.4569103988192
 30
0.0
 11
-140.1017401023266
 21
214.4569103988192
 31
0.0
  0
LINE
  5
16B
330
1F
100
AcDbEntity
  8
0
  6
Continuous
 62
     7
100
AcDbLine
 10
-142.7017401023265
 20
208.156910398819
 30
0.0
 11
-142.7017401023265
 21
214.4569103988192
 31
0.0
  0
LINE
  5
16C
330
1F
100
AcDbEntity
  8
0
  6
Continuous
 62
     7
100
AcDbLine
 10
-136.5517401023266
 20
211.4569103988192
 30
0.0
 11
-140.1017401023266
 21
211.4569103988192
 31
0.0
  0
LINE
  5
16D
330
1F
100
AcDbEntity
  8
0
  6
Continuous
 62
     7
100
AcDbLine
 10
-142.7017401023265
 20
214.4569103988192
 30
0.0
 11
-127.3017401023265
 21
214.4569103988192
 31
0.0
  0
LINE
  5
16E
330
1F
100
AcDbEntity
  8
0
  6
Continuous
 62
     7
100
AcDbLine
 10
-142.7017401023265
 20
205.656910398819
 30
0.0
 11
-140.9017401023265
 21
205.656910398819
 31
0.0
  0
LINE
  5
16F
330
1F
100
AcDbEntity
  8
0
  6
Continuous
 62
     7
100
AcDbLine
 10
-136.5517401023266
 20
206.4841807213099
 30
0.0
 11
-137.4517401023265
 21
208.956910398819
 31
0.0
  0
LINE
  5
170
330
1F
100
AcDbEntity
  8
0
  6
Continuous
 62
     7
100
AcDbLine
 10
-148.3017401023266
 20
208.156910398819
 30
0.0
 11
-148.3017401023266
 21
190.4569103988192
 31
0.0
  0
LINE
  5
171
330
1F
100
AcDbEntity
  8
0
  6
Continuous
 62
     7
100
AcDbLine
 10
-130.5517401023266
 20
208.9569103988192
 30
0.0
 11
-131.4517401023265
 21
206.4841807213099
 31
0.0
  0
LINE
  5
172
330
1F
100
AcDbEntity
  8
1
  6
DASHED
 62
     7
100
AcDbLine
 10
-127.3017401023265
 20
189.9569103988192
 30
0.0
 11
-127.3017401023265
 21
190.4569103988192
 31
0.0
  0
LINE
  5
173
330
1F
100
AcDbEntity
  8
0
  6
Continuous
 62
     7
100
AcDbLine
 10
-74.95174010232645
 20
110.9869639967122
 30
0.0
 11
-73.45174010232645
 21
110.9869639967122
 31
0.0
  0
ARC
  5
174
330
1F
100
AcDbEntity
  8
0
  6
DASHED
 62
     7
100
AcDbCircle
 10
-58.80174010232648
 20
179.3569103988191
 30
0.0
 40
1.699999999999961
100
AcDbArc
 50
105.3494770170061
 51
254.6505229829959
  0
ARC
  5
175
330
1F
100
AcDbEntity
  8
0
  6
DASHED
 62
     7
100
AcDbCircle
 10
-58.80174010232648
 20
179.3569103988191
 30
0.0
 40
1.40024413279552
100
AcDbArc
 50
108.7459500212074
 51
251.2540499787941
  0
ARC
  5
176
330
1F
100
AcDbEntity
  8
0
  6
DASHED
 62
     7
100
AcDbCircle
 10
-58.80174010232648
 20
179.3569103988191
 30
0.0
 40
1.699999999999903
100
AcDbArc
 50
285.3494770170062
 51
74.65052298299044
  0
ARC
  5
177
330
1F
100
AcDbEntity
  8
0
  6
DASHED
 62
     7
100
AcDbCircle
 10
-58.80174010232648
 20
179.3569103988191
 30
0.0
 40
1.400244132795662
100
AcDbArc
 50
288.74595002121
 51
71.25404997878852
  0
ARC
  5
178
330
1F
100
AcDbEntity
  8
0
  6
DASHED
 62
     7
100
AcDbCircle
 10
-58.80174010232648
 20
179.3569103988191
 30
0.0
 40
1.69999999999999
100
AcDbArc
 50
74.65052298299044
 51
105.3494770170061
  0
ARC
  5
179
330
1F
100
AcDbEntity
  8
0
  6
DASHED
 62
     7
100
AcDbCircle
 10
-58.80174010232648
 20
179.3569103988191
 30
0.0
 40
1.700000000000181
100
AcDbArc
 50
254.6505229829959
 51
285.3494770170062
  0
ARC
  5
17A
330
1F
100
AcDbEntity
  8
0
  6
DASHED
 62
     7
100
AcDbCircle
 10
-70.10174010232643
 20
179.3569103988191
 30
0.0
 40
1.699999999999992
100
AcDbArc
 50
105.3494770170098
 51
254.6505229829897
  0
ARC
  5
17B
330
1F
100
AcDbEntity
  8
0
  6
DASHED
 62
     7
100
AcDbCircle
 10
-70.10174010232643
 20
179.3569103988191
 30
0.0
 40
1.400244132795556
100
AcDbArc
 50
108.7459500212118
 51
251.2540499787897
  0
ARC
  5
17C
330
1F
100
AcDbEntity
  8
0
  6
DASHED
 62
     7
100
AcDbCircle
 10
-70.10174010232643
 20
179.3569103988191
 30
0.0
 40
1.699999999999906
100
AcDbArc
 50
285.3494770170066
 51
74.6505229829939
  0
ARC
  5
17D
330
1F
100
AcDbEntity
  8
0
  6
DASHED
 62
     7
100
AcDbCircle
 10
-70.10174010232643
 20
179.3569103988191
 30
0.0
 40
1.400244132795627
100
AcDbArc
 50
288.7459500212059
 51
71.25404997879264
  0
ARC
  5
17E
330
1F
100
AcDbEntity
  8
0
  6
DASHED
 62
     7
100
AcDbCircle
 10
-70.10174010232643
 20
179.3569103988191
 30
0.0
 40
1.699999999999936
100
AcDbArc
 50
254.6505229829897
 51
285.3494770170066
  0
ARC
  5
17F
330
1F
100
AcDbEntity
  8
0
  6
DASHED
 62
     7
100
AcDbCircle
 10
-70.10174010232643
 20
179.3569103988191
 30
0.0
 40
1.699999999999961
100
AcDbArc
 50
74.6505229829939
 51
105.3494770170098
  0
ARC
  5
180
330
1F
100
AcDbEntity
  8
1
  6
Continuous
 62
     7
100
AcDbCircle
 10
-144.6071802168466
 20
204.3569103988191
 30
0.0
 40
5.60166666666656
100
AcDbArc
 50
150.0098417416486
 51
209.9901582583524
  0
ARC
  5
181
330
1F
100
AcDbEntity
  8
1
  6
Continuous
 62
     7
100
AcDbCircle
 10
-64.45174010232657
 20
106.4815238821924
 30
0.0
 40
5.601666666666566
100
AcDbArc
 50
274.0948229807481
 51
299.9901582583523
  0
ARC
  5
182
330
1F
100
AcDbEntity
  8
1
  6
Continuous
 62
     7
100
AcDbCircle
 10
-64.45174010232657
 20
106.4815238821924
 30
0.0
 40
5.601666666666549
100
AcDbArc
 50
265.9051770192543
 51
270.0
  0
ARC
  5
183
330
1F
100
AcDbEntity
  8
1
  6
Continuous
 62
     7
100
AcDbCircle
 10
-64.45174010232657
 20
106.4815238821924
 30
0.0
 40
5.601666666666503
100
AcDbArc
 50
270.0
 51
274.0948229807481
  0
ARC
  5
184
330
1F
100
AcDbEntity
  8
1
  6
Continuous
 62
     7
100
AcDbCircle
 10
-64.45174010232657
 20
106.4815238821924
 30
0.0
 40
5.601666666666675
100
AcDbArc
 50
240.0098417416486
 51
265.9051770192543
  0
ARC
  5
185
330
1F
100
AcDbEntity
  8
0
  6
Continuous
 62
     7
100
AcDbCircle
 10
-56.35174010232656
 20
121.3869639967123
 30
0.0
 40
2.400000000000128
100
AcDbArc
 50
67.97568716295655
 51
80.40593177314072
  0
ARC
  5
186
330
1F
100
AcDbEntity
  8
0
  6
Continuous
 62
     7
100
AcDbCircle
 10
-56.35174010232656
 20
121.3869639967123
 30
0.0
 40
2.400000000000098
100
AcDbArc
 50
0.00000000000237
 51
67.97568716295655
  0
ARC
  5
187
330
1F
100
AcDbEntity
  8
0
  6
Continuous
 62
     7
100
AcDbCircle
 10
-56.35174010232644
 20
105.1869639967124
 30
0.0
 40
2.399999999999991
100
AcDbArc
 50
270.0
 51
0.0
  0
ARC
  5
188
330
1F
100
AcDbEntity
  8
0
  6
Continuous
 62
     7
100
AcDbCircle
 10
-72.55174010232648
 20
121.3869639967123
 30
0.0
 40
2.400000000000083
100
AcDbArc
 50
112.0243128370408
 51
179.9999999999976
  0
ARC
  5
189
330
1F
100
AcDbEntity
  8
0
  6
Continuous
 62
     7
100
AcDbCircle
 10
-56.35174010232656
 20
121.3869639967123
 30
0.0
 40
2.400000000000154
100
AcDbArc
 50
80.40593177314072
 51
89.99999999999713
  0
ARC
  5
18A
330
1F
100
AcDbEntity
  8
0
  6
Continuous
 62
     7
100
AcDbCircle
 10
-72.55174010232648
 20
105.1869639967124
 30
0.0
 40
2.399999999999977
100
AcDbArc
 50
180.0
 51
270.0
  0
ARC
  5
18B
330
1F
100
AcDbEntity
  8
0
  6
Continuous
 62
     7
100
AcDbCircle
 10
-72.55174010232648
 20
121.3869639967123
 30
0.0
 40
2.400000000000105
100
AcDbArc
 50
90.0
 51
99.59406822685928
  0
ARC
  5
18C
330
1F
100
AcDbEntity
  8
0
  6
Continuous
 62
     7
100
AcDbCircle
 10
-72.55174010232648
 20
121.3869639967123
 30
0.0
 40
2.400000000000154
100
AcDbArc
 50
99.59406822685928
 51
112.0243128370408
  0
ARC
  5
18D
330
1F
100
AcDbEntity
  8
1
  6
Continuous
 62
     2
100
AcDbCircle
 10
-64.87225023858403
 20
107.4563291903227
 30
0.0
 40
0.0794898637428874
100
AcDbArc
 50
30.00000000004367
 51
180.0000000000717
  0
ARC
  5
18E
330
1F
100
AcDbEntity
  8
1
  6
Continuous
 62
     2
100
AcDbCircle
 10
-64.85174010232654
 20
105.9912395185023
 30
0.0
 40
0.0999999999999091
100
AcDbArc
 50
180.0
 51
0.0
  0
ARC
  5
18F
330
1F
100
AcDbEntity
  8
1
  6
Continuous
 62
     2
100
AcDbCircle
 10
-64.05174010232636
 20
105.5294447178929
 30
0.0
 40
0.1000000000001364
100
AcDbArc
 50
180.0
 51
0.0
  0
ARC
  5
190
330
1F
100
AcDbEntity
  8
1
  6
Continuous
 62
     2
100
AcDbCircle
 10
-64.03122996606956
 20
107.4563291903227
 30
0.0
 40
0.079489863743099
100
AcDbArc
 50
359.9999999999283
 51
149.9999999997105
  0
ARC
  5
191
330
1F
100
AcDbEntity
  8
1
  6
Continuous
 62
     2
100
AcDbCircle
 10
-65.25174010232652
 20
107.2137140447625
 30
0.0
 40
0.1000000000000227
100
AcDbArc
 50
0.000000000057
 51
179.999999999943
  0
ARC
  5
192
330
1F
100
AcDbEntity
  8
1
  6
Continuous
 62
     2
100
AcDbCircle
 10
-64.55174010232636
 20
105.356367794816
 30
0.0
 40
0.100000000000087
100
AcDbArc
 50
240.0183606311067
 51
60.01836063116723
  0
ARC
  5
193
330
1F
100
AcDbEntity
  8
1
  6
Continuous
 62
     2
100
AcDbCircle
 10
-65.6517401023265
 20
106.9829448139934
 30
0.0
 40
0.1000000000001364
100
AcDbArc
 50
0.0
 51
180.0
  0
ARC
  5
194
330
1F
100
AcDbEntity
  8
1
  6
Continuous
 62
     2
100
AcDbCircle
 10
-65.6517401023265
 20
105.9909831794313
 30
0.0
 40
0.0999999999999091
100
AcDbArc
 50
179.999999999943
 51
0.000000000057
  0
ARC
  5
195
330
1F
100
AcDbEntity
  8
1
  6
Continuous
 62
     2
100
AcDbCircle
 10
-63.25174010232653
 20
106.9829448139934
 30
0.0
 40
0.0999999999999734
100
AcDbArc
 50
240.0183606312196
 51
60.01836063113521
  0
ARC
  5
196
330
1F
100
AcDbEntity
  8
1
  6
Continuous
 62
     2
100
AcDbCircle
 10
-63.25174010232653
 20
106.4869639967122
 30
0.0
 40
0.0999999999998096
100
AcDbArc
 50
270.000000000061
 51
89.99999999993892
  0
ARC
  5
197
330
1F
100
AcDbEntity
  8
1
  6
Continuous
 62
     2
100
AcDbCircle
 10
-63.25174010232642
 20
105.9909831794314
 30
0.0
 40
0.1000000000000338
100
AcDbArc
 50
299.9816393688404
 51
119.9816393688333
  0
CIRCLE
  5
198
330
1F
100
AcDbEntity
  8
1
  6
Continuous
 62
     7
100
AcDbCircle
 10
-64.45174010232657
 20
204.3569103988191
 30
0.0
 40
2.750000000000042
  0
CIRCLE
  5
199
330
1F
100
AcDbEntity
  8
0
  6
DASHED
 62
     7
100
AcDbCircle
 10
-58.80174010232648
 20
179.3569103988191
 30
0.0
 40
1.75
  0
CIRCLE
  5
19A
330
1F
100
AcDbEntity
  8
0
  6
DASHED
 62
     7
100
AcDbCircle
 10
-70.10174010232643
 20
179.3569103988191
 30
0.0
 40
1.75
  0
SPLINE
  5
19B
330
1F
100
AcDbEntity
  8
0
  6
DASHED
 62
     7
100
AcDbSpline
210
0.0
220
0.0
230
1.0
 70
     8
 71
     3
 72
    11
 73
     7
 74
     5
 42
0.000000001
 43
0.0000000001
 44
0.00000001
 40
0.0
 40
0.0
 40
0.0
 40
0.0
 40
0.4429293085455975
 40
0.8643236247857842
 40
1.308555538977732
 40
1.728646439337519
 40
1.728646439337519
 40
1.728646439337519
 40
1.728646439337519
 10
-142.7017401023265
 20
177.9175507677435
 30
0.0
 10
-142.84697077816
 20
177.944131562312
 30
0.0
 10
-143.1303710873403
 20
177.9960008215948
 30
0.0
 10
-143.5593614643204
 20
178.0748982136456
 30
0.0
 10
-143.9808125458294
 20
178.1527014535848
 30
0.0
 10
-144.2640680789239
 20
178.2053541721992
 30
0.0
 10
-144.4017401023341
 20
178.2309452290397
 30
0.0
 11
-142.7017401023265
 21
177.9175507677435
 31
0.0
 11
-143.1374203832266
 21
177.9973571910704
 31
0.0
 11
-143.5518661939437
 21
178.0735663751941
 31
0.0
 11
-143.9887087273473
 21
178.1542546308763
 31
0.0
 11
-144.4017401023341
 21
178.2309452290397
 31
0.0
  0
SPLINE
  5
19C
330
1F
100
AcDbEntity
  8
0
  6
DASHED
 62
     7
100
AcDbSpline
210
0.0
220
0.0
230
1.0
 70
     8
 71
     3
 72
    11
 73
     7
 74
     5
 42
0.000000001
 43
0.0000000001
 44
0.00000001
 40
0.0
 40
0.0
 40
0.0
 40
0.0
 40
0.4200838446622242
 40
0.8643237627951944
 40
1.285708269886503
 40
1.728646439332242
 40
1.728646439332242
 40
1.728646439332242
 40
1.728646439332242
 10
-144.4017401023265
 20
180.8828755685836
 30
0.0
 10
-144.2640703913213
 20
180.9084661962198
 30
0.0
 10
-143.9808145477045
 20
180.9611189738625
 30
0.0
 10
-143.5593663711234
 20
181.0389216796259
 30
0.0
 10
-143.1303736815674
 20
181.1178194999454
 30
0.0
 10
-142.846973683456
 20
181.1696887031494
 30
0.0
 10
-142.7017401023275
 20
181.1962700298966
 30
0.0
 11
-144.4017401023265
 21
180.8828755685836
 31
0.0
 11
-143.9887156650888
 21
180.9595648820222
 31
0.0
 11
-143.5518652613935
 21
181.0402545942718
 31
0.0
 11
-143.1374290985779
 21
181.116462007123
 31
0.0
 11
-142.7017401023275
 21
181.1962700298966
 31
0.0
  0
ARC
  5
19D
330
1F
100
AcDbEntity
  8
1
  6
Continuous
 62
     2
100
AcDbCircle
 10
-64.45174010232657
 20
106.5869639967124
 30
0.0
 40
0.0500000000001842
100
AcDbArc
 50
209.9999999998857
 51
329.999999999984
  0
ARC
  5
19E
330
1F
100
AcDbEntity
  8
1
  6
Continuous
 62
     2
100
AcDbCircle
 10
-65.1517401023265
 20
105.8179703411222
 30
0.0
 40
0.1999999999999318
100
AcDbArc
 50
180.0
 51
240.018360631151
  0
ARC
  5
19F
330
1F
100
AcDbEntity
  8
1
  6
Continuous
 62
     2
100
AcDbCircle
 10
-66.95168456219452
 20
106.4869639967122
 30
0.0
 40
0.0500000000001382
100
AcDbArc
 50
119.9816393687555
 51
240.0183606310817
  0
ARC
  5
1A0
330
1F
100
AcDbEntity
  8
1
  6
Continuous
 62
     2
100
AcDbCircle
 10
-61.95179564245851
 20
106.4869639967124
 30
0.0
 40
0.0500000000001176
100
AcDbArc
 50
299.9816393689101
 51
60.01836063102481
  0
ARC
  5
1A1
330
1F
100
AcDbEntity
  8
1
  6
Continuous
 62
     2
100
AcDbCircle
 10
-63.65174010232651
 20
107.2137140447625
 30
0.0
 40
0.1000000000001732
100
AcDbArc
 50
60.01836063113521
 51
179.999999999943
  0
ARC
  5
1A2
330
1F
100
AcDbEntity
  8
1
  6
Continuous
 62
     2
100
AcDbCircle
 10
-63.65174010232651
 20
105.7602139486622
 30
0.0
 40
0.0999999999999162
100
AcDbArc
 50
180.000000000057
 51
299.9816393688648
  0
MTEXT
  5
1A3
330
1F
100
AcDbEntity
  8
1
 62
     7
100
AcDbMText
 10
-152.7236993112573
 20
12.5
 30
0.0
 40
4.5
 41
0.0
 71
     4
 72
     1
  1
CJ KF\Pfemale insert RJ45 for CK
  7
CONVERTER_11
 73
     1
 44
0.90036014405762
  0
MTEXT
  5
1A4
330
1F
100
AcDbEntity
  8
1
 62
     7
100
AcDbMText
 10
-40.32369931125726
 20
10.06063942075605
 30
0.0
 40
4.5
 41
0.0
 71
     5
 72
     1
  1
1:1
  7
CONVERTER_11
 73
     1
 44
1.32052821128451
  0
MTEXT
  5
1A5
330
1F
100
AcDbEntity
  8
1
 62
     7
100
AcDbMText
 10
-177.4
 20
12.49999999999989
 30
0.0
 40
3.0
 41
0.0
 71
     4
 72
     1
  1
20/10/10
  7
CONVERTER_11
 73
     1
 44
1.32052821128451
  0
MTEXT
  5
1A6
330
1F
100
AcDbEntity
  8
1
 62
     7
100
AcDbMText
 10
-177.4
 20
7.49999999999989
 30
0.0
 40
3.0
 41
0.0
 71
     4
 72
     1
  1
T.Tedeschi
  7
CONVERTER_11
 73
     1
 44
1.32052821128451
  0
DIMENSION
  5
1B2
330
1F
100
AcDbEntity
  8
1
100
AcDbDimension
  2
*D3
 10
-74.95174010232645
 20
86.765890261898
 30
0.0
 11
-64.45174010232651
 21
90.265890261898
 31
0.0
 70
    32
  1
<>
 71
     5
 42
-1.0
 53
0.00013888888889
  3
ME10_DIM_10
100
AcDbAlignedDimension
 13
-53.95174010232646
 23
105.1869639967124
 33
0.0
 14
-74.95174010232645
 24
105.1869639967124
 34
0.0
100
AcDbRotatedDimension
  0
DIMENSION
  5
1BD
330
1F
100
AcDbEntity
  8
1
100
AcDbDimension
  2
*D4
 10
-148.3017401023266
 20
223.7760836317667
 30
0.0
 11
-137.8017401023266
 21
227.2760836317667
 31
0.0
 70
    32
  1
<>
 71
     5
 42
-1.0
 53
0.00013888888889
  3
ME10_DIM_11
100
AcDbAlignedDimension
 13
-127.3017401023265
 23
214.4569103988192
 33
0.0
 14
-148.3017401023266
 24
208.156910398819
 34
0.0
100
AcDbRotatedDimension
  0
DIMENSION
  5
1C8
330
1F
100
AcDbEntity
  8
1
100
AcDbDimension
  2
*D5
 10
-74.95174010232645
 20
223.0055942885757
 30
0.0
 11
-64.45174010232651
 21
226.5055942885757
 31
0.0
 70
    32
  1
<>
 71
     5
 42
-1.0
 53
0.00013888888889
  3
ME10_DIM_12
100
AcDbAlignedDimension
 13
-53.95174010232658
 23
214.4569103988192
 33
0.0
 14
-74.95174010232645
 24
214.4569103988192
 34
0.0
100
AcDbRotatedDimension
  0
DIMENSION
  5
1D4
330
1F
100
AcDbEntity
  8
1
100
AcDbDimension
  2
*D6
 10
-39.63310240308228
 20
214.4569103988192
 30
0.0
 11
-39.63310240308228
 21
191.3069103988191
 31
0.0
 70
    32
  1
<>
 71
     5
 42
-1.0
 53
0.00013888888889
  3
ME10_DIM_13
100
AcDbAlignedDimension
 13
-54.90174010232651
 23
168.156910398819
 33
0.0
 14
-53.95174010232658
 24
214.4569103988192
 34
0.0
 50
90.0
100
AcDbRotatedDimension
  0
ENDSEC
  0
SECTION
  2
OBJECTS
  0
DICTIONARY
  5
C
330
0
100
AcDbDictionary
281
     1
  3
ACAD_GROUP
350
D
  3
ACAD_LAYOUT
350
1A
  3
ACAD_MATERIAL
350
3B
  3
ACAD_MLEADERSTYLE
350
1D7
  3
ACAD_MLINESTYLE
350
17
  3
ACAD_PLOTSETTINGS
350
19
  3
ACAD_PLOTSTYLENAME
350
E
  3
ACAD_VISUALSTYLE
350
2A
  3
AcDbVariableDictionary
350
1D5
  0
DICTIONARY
  5
D
102
{ACAD_REACTORS
330
C
102
}
330
C
100
AcDbDictionary
281
     1
  0
DICTIONARY
  5
1A
102
{ACAD_REACTORS
330
C
102
}
330
C
100
AcDbDictionary
281
     1
  3
Layout1
350
1E
  3
Layout2
350
26
  3
Model
350
22
  0
DICTIONARY
  5
3B
102
{ACAD_REACTORS
330
C
102
}
330
C
100
AcDbDictionary
281
     1
  3
ByBlock
350
3D
  3
ByLayer
350
3C
  3
Global
350
3E
  0
DICTIONARY
  5
1D7
102
{ACAD_REACTORS
330
C
102
}
330
C
100
AcDbDictionary
281
     1
  0
DICTIONARY
  5
17
102
{ACAD_REACTORS
330
C
102
}
330
C
100
AcDbDictionary
281
     1
  3
Standard
350
18
  0
DICTIONARY
  5
19
102
{ACAD_REACTORS
330
C
102
}
330
C
100
AcDbDictionary
281
     1
  0
ACDBDICTIONARYWDFLT
  5
E
102
{ACAD_REACTORS
330
C
102
}
330
C
100
AcDbDictionary
281
     1
  3
Normal
350
F
100
AcDbDictionaryWithDefault
340
F
  0
DICTIONARY
  5
2A
102
{ACAD_REACTORS
330
C
102
}
330
C
100
AcDbDictionary
281
     1
  3
2dWireframe
350
2F
  3
3D Hidden
350
31
  3
3dWireframe
350
30
  3
Basic
350
32
  3
Brighten
350
36
  3
ColorChange
350
3A
  3
Conceptual
350
34
  3
Dim
350
35
  3
Facepattern
350
39
  3
Flat
350
2B
  3
FlatWithEdges
350
2C
  3
Gouraud
350
2D
  3
GouraudWithEdges
350
2E
  3
Linepattern
350
38
  3
Realistic
350
33
  3
Thicken
350
37
  0
DICTIONARY
  5
1D5
102
{ACAD_REACTORS
330
C
102
}
330
C
100
AcDbDictionary
281
     1
  3
DIMASSOC
350
1D8
  3
HIDETEXT
350
1D9
  0
LAYOUT
  5
1E
102
{ACAD_REACTORS
330
1A
102
}
330
1A
100
AcDbPlotSettings
  1

  2
none_device
  4

  6

 40
0.0
 41
0.0
 42
0.0
 43
0.0
 44
0.0
 45
0.0
 46
0.0
 47
0.0
 48
0.0
 49
0.0
140
0.0
141
0.0
142
1.0
143
1.0
 70
   688
 72
     0
 73
     0
 74
     5
  7

 75
    16
147
1.0
148
0.0
149
0.0
100
AcDbLayout
  1
Layout1
 70
     1
 71
     1
 10
0.0
 20
0.0
 11
12.0
 21
9.0
 12
0.0
 22
0.0
 32
0.0
 14
1.00000000000000E+20
 24
1.00000000000000E+20
 34
1.00000000000000E+20
 15
-1.00000000000000E+20
 25
-1.00000000000000E+20
 35
-1.00000000000000E+20
146
0.0
 13
0.0
 23
0.0
 33
0.0
 16
1.0
 26
0.0
 36
0.0
 17
0.0
 27
1.0
 37
0.0
 76
     0
330
1B
  0
LAYOUT
  5
26
102
{ACAD_REACTORS
330
1A
102
}
330
1A
100
AcDbPlotSettings
  1

  2
none_device
  4

  6

 40
0.0
 41
0.0
 42
0.0
 43
0.0
 44
0.0
 45
0.0
 46
0.0
 47
0.0
 48
0.0
 49
0.0
140
0.0
141
0.0
142
1.0
143
1.0
 70
   688
 72
     0
 73
     0
 74
     5
  7

 75
    16
147
1.0
148
0.0
149
0.0
100
AcDbLayout
  1
Layout2
 70
     1
 71
     2
 10
0.0
 20
0.0
 11
0.0
 21
0.0
 12
0.0
 22
0.0
 32
0.0
 14
0.0
 24
0.0
 34
0.0
 15
0.0
 25
0.0
 35
0.0
146
0.0
 13
0.0
 23
0.0
 33
0.0
 16
1.0
 26
0.0
 36
0.0
 17
0.0
 27
1.0
 37
0.0
 76
     0
330
23
  0
LAYOUT
  5
22
102
{ACAD_REACTORS
330
1A
102
}
330
1A
100
AcDbPlotSettings
  1

  2
none_device
  4

  6

 40
0.0
 41
0.0
 42
0.0
 43
0.0
 44
0.0
 45
0.0
 46
0.0
 47
0.0
 48
0.0
 49
0.0
140
0.0
141
0.0
142
1.0
143
1.0
 70
  1712
 72
     0
 73
     0
 74
     0
  7

 75
     0
147
1.0
148
0.0
149
0.0
100
AcDbLayout
  1
Model
 70
     1
 71
     0
 10
0.0
 20
0.0
 11
12.0
 21
9.0
 12
0.0
 22
0.0
 32
0.0
 14
-210.0000000000001
 24
0.0
 34
0.0
 15
0.0
 25
297.0000000000001
 35
0.0
146
0.0
 13
0.0
 23
0.0
 33
0.0
 16
1.0
 26
0.0
 36
0.0
 17
0.0
 27
1.0
 37
0.0
 76
     0
330
1F
331
29
  0
MATERIAL
  5
3D
102
{ACAD_REACTORS
330
3B
102
}
102
{ACAD_XDICTIONARY
360
1FC
102
}
330
3B
100
AcDbMaterial
  1
ByBlock
  0
MATERIAL
  5
3C
102
{ACAD_REACTORS
330
3B
102
}
102
{ACAD_XDICTIONARY
360
1FA
102
}
330
3B
100
AcDbMaterial
  1
ByLayer
  0
MATERIAL
  5
3E
102
{ACAD_REACTORS
330
3B
102
}
102
{ACAD_XDICTIONARY
360
1FE
102
}
330
3B
100
AcDbMaterial
  1
Global
  0
MLINESTYLE
  5
18
102
{ACAD_REACTORS
330
17
102
}
330
17
100
AcDbMlineStyle
  2
Standard
 70
     0
  3

 62
   256
 51
90.0
 52
90.0
 71
     2
 49
0.5
 62
   256
  6
BYLAYER
 49
-0.5
 62
   256
  6
BYLAYER
  0
ACDBPLACEHOLDER
  5
F
102
{ACAD_REACTORS
330
E
102
}
330
E
  0
VISUALSTYLE
  5
2F
102
{ACAD_REACTORS
330
2A
102
}
102
{ACAD_XDICTIONARY
360
1E2
102
}
330
2A
100
AcDbVisualStyle
  2
2dWireframe
 70
     4
 71
     0
 72
     2
 73
     0
 90
        0
 40
-0.6
 41
-30.0
 62
     5
 63
     7
 74
     1
 91
        4
 64
     7
 65
   257
 75
     1
175
     1
 42
1.0
 92
        0
 66
   257
 43
1.0
 76
     1
 77
     6
 78
     2
 67
     7
 79
     5
170
     0
171
     0
290
     0
174
     0
 93
        1
 44
0.0
173
     0
291
     0
 45
0.0
1001
ACAD
1000
AcDbSavedByObjectVersion
1070
     0
  0
VISUALSTYLE
  5
31
102
{ACAD_REACTORS
330
2A
102
}
102
{ACAD_XDICTIONARY
360
1E6
102
}
330
2A
100
AcDbVisualStyle
  2
3D Hidden
 70
     6
 71
     1
 72
     2
 73
     2
 90
        0
 40
-0.6
 41
-30.0
 62
     5
 63
     7
 74
     2
 91
        2
 64
     7
 65
   257
 75
     2
175
     1
 42
40.0
 92
        0
 66
   257
 43
1.0
 76
     1
 77
     6
 78
     2
 67
     7
 79
     3
170
     0
171
     0
290
     0
174
     0
 93
        1
 44
0.0
173
     0
291
     0
 45
0.0
1001
ACAD
1000
AcDbSavedByObjectVersion
1070
     0
  0
VISUALSTYLE
  5
30
102
{ACAD_REACTORS
330
2A
102
}
102
{ACAD_XDICTIONARY
360
1E4
102
}
330
2A
100
AcDbVisualStyle
  2
3dWireframe
 70
     5
 71
     0
 72
     2
 73
     0
 90
        0
 40
-0.6
 41
-30.0
 62
     5
 63
     7
 74
     1
 91
        4
 64
     7
 65
   257
 75
     1
175
     1
 42
1.0
 92
        0
 66
   257
 43
1.0
 76
     1
 77
     6
 78
     2
 67
     7
 79
     5
170
     0
171
     0
290
     0
174
     0
 93
        1
 44
0.0
173
     0
291
     0
 45
0.0
1001
ACAD
1000
AcDbSavedByObjectVersion
1070
     0
  0
VISUALSTYLE
  5
32
102
{ACAD_REACTORS
330
2A
102
}
102
{ACAD_XDICTIONARY
360
1E8
102
}
330
2A
100
AcDbVisualStyle
  2
Basic
 70
     7
 71
     1
 72
     0
 73
     1
 90
        0
 40
-0.6
 41
-30.0
 62
     5
 63
     7
 74
     0
 91
        4
 64
     7
 65
   257
 75
     1
175
     1
 42
1.0
 92
        8
 66
     7
 43
1.0
 76
     1
 77
     6
 78
     2
 67
     7
 79
     5
170
     0
171
     0
290
     0
174
     0
 93
        1
 44
0.0
173
     0
291
     1
 45
0.0
1001
ACAD
1000
AcDbSavedByObjectVersion
1070
     0
  0
VISUALSTYLE
  5
36
102
{ACAD_REACTORS
330
2A
102
}
102
{ACAD_XDICTIONARY
360
1F0
102
}
330
2A
100
AcDbVisualStyle
  2
Brighten
 70
    12
 71
     2
 72
     2
 73
     0
 90
        0
 40
-0.6
 41
-30.0
 62
     5
 63
     7
 74
     1
 91
        4
 64
     7
 65
   257
 75
     1
175
     1
 42
1.0
 92
        8
 66
     7
 43
1.0
 76
     1
 77
     6
 78
     2
 67
     7
 79
     5
170
     0
171
     0
290
     0
174
     0
 93
        1
 44
50.0
173
     0
291
     1
 45
0.0
1001
ACAD
1000
AcDbSavedByObjectVersion
1070
     0
  0
VISUALSTYLE
  5
3A
102
{ACAD_REACTORS
330
2A
102
}
102
{ACAD_XDICTIONARY
360
1F8
102
}
330
2A
100
AcDbVisualStyle
  2
ColorChange
 70
    16
 71
     2
 72
     2
 73
     3
 90
        0
 40
-0.6
 41
-30.0
 62
     5
 63
     8
 74
     1
 91
        4
 64
     7
 65
   257
 75
     1
175
     1
 42
1.0
 92
        8
 66
     8
 43
1.0
 76
     1
 77
     6
 78
     2
 67
     7
 79
     5
170
     0
171
     0
290
     0
174
     0
 93
        1
 44
0.0
173
     0
291
     1
 45
0.0
1001
ACAD
1000
AcDbSavedByObjectVersion
1070
     0
  0
VISUALSTYLE
  5
34
102
{ACAD_REACTORS
330
2A
102
}
102
{ACAD_XDICTIONARY
360
1EC
102
}
330
2A
100
AcDbVisualStyle
  2
Conceptual
 70
     9
 71
     3
 72
     2
 73
     0
 90
        0
 40
-0.6
 41
-30.0
 62
     5
 63
     7
 74
     2
 91
        2
 64
     7
 65
   257
 75
     1
175
     1
 42
40.0
 92
        8
 66
     7
 43
1.0
 76
     1
 77
     6
 78
     2
 67
     7
 79
     3
170
     0
171
     0
290
     0
174
     0
 93
        1
 44
0.0
173
     0
291
     0
 45
0.0
1001
ACAD
1000
AcDbSavedByObjectVersion
1070
     0
  0
VISUALSTYLE
  5
35
102
{ACAD_REACTORS
330
2A
102
}
102
{ACAD_XDICTIONARY
360
1EE
102
}
330
2A
100
AcDbVisualStyle
  2
Dim
 70
    11
 71
     2
 72
     2
 73
     0
 90
        0
 40
-0.6
 41
-30.0
 62
     5
 63
     7
 74
     1
 91
        4
 64
     7
 65
   257
 75
     1
175
     1
 42
1.0
 92
        8
 66
     7
 43
1.0
 76
     1
 77
     6
 78
     2
 67
     7
 79
     5
170
     0
171
     0
290
     0
174
     0
 93
        1
 44
-50.0
173
     0
291
     1
 45
0.0
1001
ACAD
1000
AcDbSavedByObjectVersion
1070
     0
  0
VISUALSTYLE
  5
39
102
{ACAD_REACTORS
330
2A
102
}
102
{ACAD_XDICTIONARY
360
1F6
102
}
330
2A
100
AcDbVisualStyle
  2
Facepattern
 70
    15
 71
     2
 72
     2
 73
     0
 90
        0
 40
-0.6
 41
-30.0
 62
     5
 63
     7
 74
     1
 91
        4
 64
     7
 65
   257
 75
     1
175
     1
 42
1.0
 92
        8
 66
     7
 43
1.0
 76
     1
 77
     6
 78
     2
 67
     7
 79
     5
170
     0
171
     0
290
     0
174
     0
 93
        1
 44
0.0
173
     0
291
     1
 45
0.0
1001
ACAD
1000
AcDbSavedByObjectVersion
1070
     0
  0
VISUALSTYLE
  5
2B
102
{ACAD_REACTORS
330
2A
102
}
102
{ACAD_XDICTIONARY
360
1DA
102
}
330
2A
100
AcDbVisualStyle
  2
Flat
 70
     0
 71
     2
 72
     1
 73
     1
 90
        2
 40
-0.6
 41
30.0
 62
     5
 63
     7
 74
     0
 91
        4
 64
     7
 65
   257
 75
     1
175
     1
 42
1.0
 92
        8
 66
     7
 43
1.0
 76
     1
 77
     6
 78
     2
 67
     7
 79
     5
170
     0
171
     0
290
     0
174
     0
 93
       13
 44
0.0
173
     0
291
     1
 45
0.0
1001
ACAD
1000
AcDbSavedByObjectVersion
1070
     0
  0
VISUALSTYLE
  5
2C
102
{ACAD_REACTORS
330
2A
102
}
102
{ACAD_XDICTIONARY
360
1DC
102
}
330
2A
100
AcDbVisualStyle
  2
FlatWithEdges
 70
     1
 71
     2
 72
     1
 73
     1
 90
        2
 40
-0.6
 41
30.0
 62
     5
 63
     7
 74
     1
 91
        4
 64
     7
 65
   257
 75
     1
175
     1
 42
1.0
 92
        0
 66
   257
 43
1.0
 76
     1
 77
     6
 78
     2
 67
     7
 79
     5
170
     0
171
     0
290
     0
174
     0
 93
       13
 44
0.0
173
     0
291
     1
 45
0.0
1001
ACAD
1000
AcDbSavedByObjectVersion
1070
     0
  0
VISUALSTYLE
  5
2D
102
{ACAD_REACTORS
330
2A
102
}
102
{ACAD_XDICTIONARY
360
1DE
102
}
330
2A
100
AcDbVisualStyle
  2
Gouraud
 70
     2
 71
     2
 72
     2
 73
     1
 90
        2
 40
-0.6
 41
30.0
 62
     5
 63
     7
 74
     0
 91
        4
 64
     7
 65
   257
 75
     1
175
     1
 42
1.0
 92
        0
 66
     7
 43
1.0
 76
     1
 77
     6
 78
     2
 67
     7
 79
     5
170
     0
171
     0
290
     0
174
     0
 93
       13
 44
0.0
173
     0
291
     1
 45
0.0
1001
ACAD
1000
AcDbSavedByObjectVersion
1070
     0
  0
VISUALSTYLE
  5
2E
102
{ACAD_REACTORS
330
2A
102
}
102
{ACAD_XDICTIONARY
360
1E0
102
}
330
2A
100
AcDbVisualStyle
  2
GouraudWithEdges
 70
     3
 71
     2
 72
     2
 73
     1
 90
        2
 40
-0.6
 41
30.0
 62
     5
 63
     7
 74
     1
 91
        4
 64
     7
 65
   257
 75
     1
175
     1
 42
1.0
 92
        0
 66
   257
 43
1.0
 76
     1
 77
     6
 78
     2
 67
     7
 79
     5
170
     0
171
     0
290
     0
174
     0
 93
       13
 44
0.0
173
     0
291
     1
 45
0.0
1001
ACAD
1000
AcDbSavedByObjectVersion
1070
     0
  0
VISUALSTYLE
  5
38
102
{ACAD_REACTORS
330
2A
102
}
102
{ACAD_XDICTIONARY
360
1F4
102
}
330
2A
100
AcDbVisualStyle
  2
Linepattern
 70
    14
 71
     2
 72
     2
 73
     0
 90
        0
 40
-0.6
 41
-30.0
 62
     5
 63
     7
 74
     1
 91
        4
 64
     7
 65
   257
 75
     7
175
     7
 42
1.0
 92
        8
 66
     7
 43
1.0
 76
     1
 77
     6
 78
     2
 67
     7
 79
     5
170
     0
171
     0
290
     0
174
     0
 93
        1
 44
0.0
173
     0
291
     1
 45
0.0
1001
ACAD
1000
AcDbSavedByObjectVersion
1070
     0
  0
VISUALSTYLE
  5
33
102
{ACAD_REACTORS
330
2A
102
}
102
{ACAD_XDICTIONARY
360
1EA
102
}
330
2A
100
AcDbVisualStyle
  2
Realistic
 70
     8
 71
     2
 72
     2
 73
     0
 90
        0
 40
-0.6
 41
-30.0
 62
     5
 63
     7
 74
     1
 91
        0
 64
     7
 65
   257
 75
     1
175
     1
 42
1.0
 92
        8
 66
     8
 43
1.0
 76
     1
 77
     6
 78
     2
 67
     7
 79
     5
170
     0
171
     0
290
     0
174
     0
 93
       13
 44
0.0
173
     0
291
     0
 45
0.0
1001
ACAD
1000
AcDbSavedByObjectVersion
1070
     0
  0
VISUALSTYLE
  5
37
102
{ACAD_REACTORS
330
2A
102
}
102
{ACAD_XDICTIONARY
360
1F2
102
}
330
2A
100
AcDbVisualStyle
  2
Thicken
 70
    13
 71
     2
 72
     2
 73
     0
 90
        0
 40
-0.6
 41
-30.0
 62
     5
 63
     7
 74
     1
 91
        4
 64
     7
 65
   257
 75
     1
175
     1
 42
1.0
 92
       12
 66
     7
 43
1.0
 76
     1
 77
     6
 78
     2
 67
     7
 79
     5
170
     0
171
     0
290
     0
174
     0
 93
        1
 44
0.0
173
     0
291
     1
 45
0.0
1001
ACAD
1000
AcDbSavedByObjectVersion
1070
     0
  0
DICTIONARYVAR
  5
1D8
102
{ACAD_REACTORS
330
1D5
102
}
330
1D5
100
DictionaryVariables
280
     0
  1
2
  0
DICTIONARYVAR
  5
1D9
102
{ACAD_REACTORS
330
1D5
102
}
330
1D5
100
DictionaryVariables
280
     0
  1
1
  0
DICTIONARY
  5
1FC
330
3D
100
AcDbDictionary
280
     1
281
     1
  3
ACAD_XREC_ROUNDTRIP
360
1FD
  0
DICTIONARY
  5
1FA
330
3C
100
AcDbDictionary
280
     1
281
     1
  3
ACAD_XREC_ROUNDTRIP
360
1FB
  0
DICTIONARY
  5
1FE
330
3E
100
AcDbDictionary
280
     1
281
     1
  3
ACAD_XREC_ROUNDTRIP
360
1FF
  0
DICTIONARY
  5
1E2
330
2F
100
AcDbDictionary
280
     1
281
     1
  3
ACAD_XREC_ROUNDTRIP
360
1E3
  0
DICTIONARY
  5
1E6
330
31
100
AcDbDictionary
280
     1
281
     1
  3
ACAD_XREC_ROUNDTRIP
360
1E7
  0
DICTIONARY
  5
1E4
330
30
100
AcDbDictionary
280
     1
281
     1
  3
ACAD_XREC_ROUNDTRIP
360
1E5
  0
DICTIONARY
  5
1E8
330
32
100
AcDbDictionary
280
     1
281
     1
  3
ACAD_XREC_ROUNDTRIP
360
1E9
  0
DICTIONARY
  5
1F0
330
36
100
AcDbDictionary
280
     1
281
     1
  3
ACAD_XREC_ROUNDTRIP
360
1F1
  0
DICTIONARY
  5
1F8
330
3A
100
AcDbDictionary
280
     1
281
     1
  3
ACAD_XREC_ROUNDTRIP
360
1F9
  0
DICTIONARY
  5
1EC
330
34
100
AcDbDictionary
280
     1
281
     1
  3
ACAD_XREC_ROUNDTRIP
360
1ED
  0
DICTIONARY
  5
1EE
330
35
100
AcDbDictionary
280
     1
281
     1
  3
ACAD_XREC_ROUNDTRIP
360
1EF
  0
DICTIONARY
  5
1F6
330
39
100
AcDbDictionary
280
     1
281
     1
  3
ACAD_XREC_ROUNDTRIP
360
1F7
  0
DICTIONARY
  5
1DA
330
2B
100
AcDbDictionary
280
     1
281
     1
  3
ACAD_XREC_ROUNDTRIP
360
1DB
  0
DICTIONARY
  5
1DC
330
2C
100
AcDbDictionary
280
     1
281
     1
  3
ACAD_XREC_ROUNDTRIP
360
1DD
  0
DICTIONARY
  5
1DE
330
2D
100
AcDbDictionary
280
     1
281
     1
  3
ACAD_XREC_ROUNDTRIP
360
1DF
  0
DICTIONARY
  5
1E0
330
2E
100
AcDbDictionary
280
     1
281
     1
  3
ACAD_XREC_ROUNDTRIP
360
1E1
  0
DICTIONARY
  5
1F4
330
38
100
AcDbDictionary
280
     1
281
     1
  3
ACAD_XREC_ROUNDTRIP
360
1F5
  0
DICTIONARY
  5
1EA
330
33
100
AcDbDictionary
280
     1
281
     1
  3
ACAD_XREC_ROUNDTRIP
360
1EB
  0
DICTIONARY
  5
1F2
330
37
100
AcDbDictionary
280
     1
281
     1
  3
ACAD_XREC_ROUNDTRIP
360
1F3
  0
XRECORD
  5
1FD
102
{ACAD_REACTORS
330
1FC
102
}
330
1FC
100
AcDbXrecord
280
     1
102
MATERIAL
148
0.0
149
0.0
149
0.0
 93
        0
 94
      127
282
     0
 72
     1
 77
     1
171
     1
175
     1
179
     1
273
     0
  0
XRECORD
  5
1FB
102
{ACAD_REACTORS
330
1FA
102
}
330
1FA
100
AcDbXrecord
280
     1
102
MATERIAL
148
0.0
149
0.0
149
0.0
 93
        0
 94
      127
282
     0
 72
     1
 77
     1
171
     1
175
     1
179
     1
273
     0
  0
XRECORD
  5
1FF
102
{ACAD_REACTORS
330
1FE
102
}
330
1FE
100
AcDbXrecord
280
     1
102
MATERIAL
148
0.0
149
0.0
149
0.0
 93
        0
 94
      127
282
     0
 72
     1
 77
     1
171
     1
175
     1
179
     1
273
     0
  0
XRECORD
  5
1E3
102
{ACAD_REACTORS
330
1E2
102
}
330
1E2
100
AcDbXrecord
280
     1
102
RTVSPropertyOp0
 70
     1
102
RTVSPropertyOp1
 70
     1
102
RTVSPropertyOp2
 70
     1
102
RTVSPropertyOp3
 70
     1
102
RTVSPropertyOp4
 70
     1
102
RTVSPropertyOp5
 70
     1
102
RTVSPropertyOp6
 70
     1
102
RTVSPropertyOp7
 70
     1
102
RTVSPropertyOp8
 70
     1
102
RTVSPropertyOp9
 70
     1
102
RTVSPropertyOp10
 70
     1
102
RTVSPropertyOp11
 70
     1
102
RTVSPropertyOp12
 70
     1
102
RTVSPropertyOp13
 70
     1
102
RTVSPropertyOp14
 70
     1
102
RTVSPropertyOp15
 70
     1
102
RTVSPropertyOp16
 70
     1
102
RTVSPropertyOp17
 70
     1
102
RTVSPropertyOp18
 70
     1
102
RTVSPropertyOp19
 70
     1
102
RTVSPropertyOp20
 70
     1
102
RTVSPropertyOp21
 70
     1
102
RTVSPropertyOp22
 70
     1
102
RTVSPropertyOp23
 70
     1
102
RTVSPropertyOp24
 70
     1
102
RTVSPropertyOp25
 70
     1
102
RTVSPropertyOp26
 70
     1
102
RTVSPropertyOp27
 70
     1
102
RTVSPropertyOp28
 70
     1
102
RTVSPropertyOp29
 70
     1
102
RTVSPropertyOp30
 70
     1
102
RTVSPropertyOp31
 70
     1
102
RTVSPropertyOp32
 70
     1
  0
XRECORD
  5
1E7
102
{ACAD_REACTORS
330
1E6
102
}
330
1E6
100
AcDbXrecord
280
     1
102
RTVSPropertyOp0
 70
     1
102
RTVSPropertyOp1
 70
     1
102
RTVSPropertyOp2
 70
     1
102
RTVSPropertyOp3
 70
     1
102
RTVSPropertyOp4
 70
     1
102
RTVSPropertyOp5
 70
     1
102
RTVSPropertyOp6
 70
     1
102
RTVSPropertyOp7
 70
     1
102
RTVSPropertyOp8
 70
     1
102
RTVSPropertyOp9
 70
     1
102
RTVSPropertyOp10
 70
     1
102
RTVSPropertyOp11
 70
     1
102
RTVSPropertyOp12
 70
     1
102
RTVSPropertyOp13
 70
     1
102
RTVSPropertyOp14
 70
     1
102
RTVSPropertyOp15
 70
     1
102
RTVSPropertyOp16
 70
     1
102
RTVSPropertyOp17
 70
     1
102
RTVSPropertyOp18
 70
     1
102
RTVSPropertyOp19
 70
     1
102
RTVSPropertyOp20
 70
     1
102
RTVSPropertyOp21
 70
     1
102
RTVSPropertyOp22
 70
     1
102
RTVSPropertyOp23
 70
     1
102
RTVSPropertyOp24
 70
     1
102
RTVSPropertyOp25
 70
     1
102
RTVSPropertyOp26
 70
     1
102
RTVSPropertyOp27
 70
     1
102
RTVSPropertyOp28
 70
     1
102
RTVSPropertyOp29
 70
     1
102
RTVSPropertyOp30
 70
     1
102
RTVSPropertyOp31
 70
     1
102
RTVSPropertyOp32
 70
     1
  0
XRECORD
  5
1E5
102
{ACAD_REACTORS
330
1E4
102
}
330
1E4
100
AcDbXrecord
280
     1
102
RTVSPropertyOp0
 70
     1
102
RTVSPropertyOp1
 70
     1
102
RTVSPropertyOp2
 70
     1
102
RTVSPropertyOp3
 70
     1
102
RTVSPropertyOp4
 70
     1
102
RTVSPropertyOp5
 70
     1
102
RTVSPropertyOp6
 70
     1
102
RTVSPropertyOp7
 70
     1
102
RTVSPropertyOp8
 70
     1
102
RTVSPropertyOp9
 70
     1
102
RTVSPropertyOp10
 70
     1
102
RTVSPropertyOp11
 70
     1
102
RTVSPropertyOp12
 70
     1
102
RTVSPropertyOp13
 70
     1
102
RTVSPropertyOp14
 70
     1
102
RTVSPropertyOp15
 70
     1
102
RTVSPropertyOp16
 70
     1
102
RTVSPropertyOp17
 70
     1
102
RTVSPropertyOp18
 70
     1
102
RTVSPropertyOp19
 70
     1
102
RTVSPropertyOp20
 70
     1
102
RTVSPropertyOp21
 70
     1
102
RTVSPropertyOp22
 70
     1
102
RTVSPropertyOp23
 70
     1
102
RTVSPropertyOp24
 70
     1
102
RTVSPropertyOp25
 70
     1
102
RTVSPropertyOp26
 70
     1
102
RTVSPropertyOp27
 70
     1
102
RTVSPropertyOp28
 70
     1
102
RTVSPropertyOp29
 70
     1
102
RTVSPropertyOp30
 70
     1
102
RTVSPropertyOp31
 70
     1
102
RTVSPropertyOp32
 70
     1
  0
XRECORD
  5
1E9
102
{ACAD_REACTORS
330
1E8
102
}
330
1E8
100
AcDbXrecord
280
     1
102
RTVSPropertyOp0
 70
     1
102
RTVSPropertyOp1
 70
     1
102
RTVSPropertyOp2
 70
     1
102
RTVSPropertyOp3
 70
     1
102
RTVSPropertyOp4
 70
     1
102
RTVSPropertyOp5
 70
     1
102
RTVSPropertyOp6
 70
     1
102
RTVSPropertyOp7
 70
     1
102
RTVSPropertyOp8
 70
     1
102
RTVSPropertyOp9
 70
     1
102
RTVSPropertyOp10
 70
     1
102
RTVSPropertyOp11
 70
     1
102
RTVSPropertyOp12
 70
     1
102
RTVSPropertyOp13
 70
     1
102
RTVSPropertyOp14
 70
     1
102
RTVSPropertyOp15
 70
     1
102
RTVSPropertyOp16
 70
     1
102
RTVSPropertyOp17
 70
     1
102
RTVSPropertyOp18
 70
     1
102
RTVSPropertyOp19
 70
     1
102
RTVSPropertyOp20
 70
     1
102
RTVSPropertyOp21
 70
     1
102
RTVSPropertyOp22
 70
     1
102
RTVSPropertyOp23
 70
     1
102
RTVSPropertyOp24
 70
     1
102
RTVSPropertyOp25
 70
     1
102
RTVSPropertyOp26
 70
     1
102
RTVSPropertyOp27
 70
     1
102
RTVSPropertyOp28
 70
     1
102
RTVSPropertyOp29
 70
     1
102
RTVSPropertyOp30
 70
     1
102
RTVSPropertyOp31
 70
     1
102
RTVSPropertyOp32
 70
     1
  0
XRECORD
  5
1F1
102
{ACAD_REACTORS
330
1F0
102
}
330
1F0
100
AcDbXrecord
280
     1
102
RTVSPropertyOp0
 70
     1
102
RTVSPropertyOp1
 70
     1
102
RTVSPropertyOp2
 70
     1
102
RTVSPropertyOp3
 70
     1
102
RTVSPropertyOp4
 70
     1
102
RTVSPropertyOp5
 70
     1
102
RTVSPropertyOp6
 70
     1
102
RTVSPropertyOp7
 70
     1
102
RTVSPropertyOp8
 70
     1
102
RTVSPropertyOp9
 70
     1
102
RTVSPropertyOp10
 70
     1
102
RTVSPropertyOp11
 70
     1
102
RTVSPropertyOp12
 70
     1
102
RTVSPropertyOp13
 70
     1
102
RTVSPropertyOp14
 70
     1
102
RTVSPropertyOp15
 70
     1
102
RTVSPropertyOp16
 70
     1
102
RTVSPropertyOp17
 70
     1
102
RTVSPropertyOp18
 70
     1
102
RTVSPropertyOp19
 70
     1
102
RTVSPropertyOp20
 70
     1
102
RTVSPropertyOp21
 70
     1
102
RTVSPropertyOp22
 70
     1
102
RTVSPropertyOp23
 70
     1
102
RTVSPropertyOp24
 70
     1
102
RTVSPropertyOp25
 70
     1
102
RTVSPropertyOp26
 70
     1
102
RTVSPropertyOp27
 70
     1
102
RTVSPropertyOp28
 70
     1
102
RTVSPropertyOp29
 70
     1
102
RTVSPropertyOp30
 70
     1
102
RTVSPropertyOp31
 70
     1
102
RTVSPropertyOp32
 70
     1
  0
XRECORD
  5
1F9
102
{ACAD_REACTORS
330
1F8
102
}
330
1F8
100
AcDbXrecord
280
     1
102
RTVSPropertyOp0
 70
     1
102
RTVSPropertyOp1
 70
     1
102
RTVSPropertyOp2
 70
     1
102
RTVSPropertyOp3
 70
     1
102
RTVSPropertyOp4
 70
     1
102
RTVSPropertyOp5
 70
     1
102
RTVSPropertyOp6
 70
     1
102
RTVSPropertyOp7
 70
     1
102
RTVSPropertyOp8
 70
     1
102
RTVSPropertyOp9
 70
     1
102
RTVSPropertyOp10
 70
     1
102
RTVSPropertyOp11
 70
     1
102
RTVSPropertyOp12
 70
     1
102
RTVSPropertyOp13
 70
     1
102
RTVSPropertyOp14
 70
     1
102
RTVSPropertyOp15
 70
     1
102
RTVSPropertyOp16
 70
     1
102
RTVSPropertyOp17
 70
     1
102
RTVSPropertyOp18
 70
     1
102
RTVSPropertyOp19
 70
     1
102
RTVSPropertyOp20
 70
     1
102
RTVSPropertyOp21
 70
     1
102
RTVSPropertyOp22
 70
     1
102
RTVSPropertyOp23
 70
     1
102
RTVSPropertyOp24
 70
     1
102
RTVSPropertyOp25
 70
     1
102
RTVSPropertyOp26
 70
     1
102
RTVSPropertyOp27
 70
     1
102
RTVSPropertyOp28
 70
     1
102
RTVSPropertyOp29
 70
     1
102
RTVSPropertyOp30
 70
     1
102
RTVSPropertyOp31
 70
     1
102
RTVSPropertyOp32
 70
     1
  0
XRECORD
  5
1ED
102
{ACAD_REACTORS
330
1EC
102
}
330
1EC
100
AcDbXrecord
280
     1
102
RTVSPropertyOp0
 70
     1
102
RTVSPropertyOp1
 70
     1
102
RTVSPropertyOp2
 70
     1
102
RTVSPropertyOp3
 70
     1
102
RTVSPropertyOp4
 70
     1
102
RTVSPropertyOp5
 70
     1
102
RTVSPropertyOp6
 70
     1
102
RTVSPropertyOp7
 70
     1
102
RTVSPropertyOp8
 70
     1
102
RTVSPropertyOp9
 70
     1
102
RTVSPropertyOp10
 70
     1
102
RTVSPropertyOp11
 70
     1
102
RTVSPropertyOp12
 70
     1
102
RTVSPropertyOp13
 70
     1
102
RTVSPropertyOp14
 70
     1
102
RTVSPropertyOp15
 70
     1
102
RTVSPropertyOp16
 70
     1
102
RTVSPropertyOp17
 70
     1
102
RTVSPropertyOp18
 70
     1
102
RTVSPropertyOp19
 70
     1
102
RTVSPropertyOp20
 70
     1
102
RTVSPropertyOp21
 70
     1
102
RTVSPropertyOp22
 70
     1
102
RTVSPropertyOp23
 70
     1
102
RTVSPropertyOp24
 70
     1
102
RTVSPropertyOp25
 70
     1
102
RTVSPropertyOp26
 70
     1
102
RTVSPropertyOp27
 70
     1
102
RTVSPropertyOp28
 70
     1
102
RTVSPropertyOp29
 70
     1
102
RTVSPropertyOp30
 70
     1
102
RTVSPropertyOp31
 70
     1
102
RTVSPropertyOp32
 70
     1
  0
XRECORD
  5
1EF
102
{ACAD_REACTORS
330
1EE
102
}
330
1EE
100
AcDbXrecord
280
     1
102
RTVSPropertyOp0
 70
     1
102
RTVSPropertyOp1
 70
     1
102
RTVSPropertyOp2
 70
     1
102
RTVSPropertyOp3
 70
     1
102
RTVSPropertyOp4
 70
     1
102
RTVSPropertyOp5
 70
     1
102
RTVSPropertyOp6
 70
     1
102
RTVSPropertyOp7
 70
     1
102
RTVSPropertyOp8
 70
     1
102
RTVSPropertyOp9
 70
     1
102
RTVSPropertyOp10
 70
     1
102
RTVSPropertyOp11
 70
     1
102
RTVSPropertyOp12
 70
     1
102
RTVSPropertyOp13
 70
     1
102
RTVSPropertyOp14
 70
     1
102
RTVSPropertyOp15
 70
     1
102
RTVSPropertyOp16
 70
     1
102
RTVSPropertyOp17
 70
     1
102
RTVSPropertyOp18
 70
     1
102
RTVSPropertyOp19
 70
     1
102
RTVSPropertyOp20
 70
     1
102
RTVSPropertyOp21
 70
     1
102
RTVSPropertyOp22
 70
     1
102
RTVSPropertyOp23
 70
     1
102
RTVSPropertyOp24
 70
     1
102
RTVSPropertyOp25
 70
     1
102
RTVSPropertyOp26
 70
     1
102
RTVSPropertyOp27
 70
     1
102
RTVSPropertyOp28
 70
     1
102
RTVSPropertyOp29
 70
     1
102
RTVSPropertyOp30
 70
     1
102
RTVSPropertyOp31
 70
     1
102
RTVSPropertyOp32
 70
     1
  0
XRECORD
  5
1F7
102
{ACAD_REACTORS
330
1F6
102
}
330
1F6
100
AcDbXrecord
280
     1
102
RTVSPropertyOp0
 70
     1
102
RTVSPropertyOp1
 70
     1
102
RTVSPropertyOp2
 70
     1
102
RTVSPropertyOp3
 70
     1
102
RTVSPropertyOp4
 70
     1
102
RTVSPropertyOp5
 70
     1
102
RTVSPropertyOp6
 70
     1
102
RTVSPropertyOp7
 70
     1
102
RTVSPropertyOp8
 70
     1
102
RTVSPropertyOp9
 70
     1
102
RTVSPropertyOp10
 70
     1
102
RTVSPropertyOp11
 70
     1
102
RTVSPropertyOp12
 70
     1
102
RTVSPropertyOp13
 70
     1
102
RTVSPropertyOp14
 70
     1
102
RTVSPropertyOp15
 70
     1
102
RTVSPropertyOp16
 70
     1
102
RTVSPropertyOp17
 70
     1
102
RTVSPropertyOp18
 70
     1
102
RTVSPropertyOp19
 70
     1
102
RTVSPropertyOp20
 70
     1
102
RTVSPropertyOp21
 70
     1
102
RTVSPropertyOp22
 70
     1
102
RTVSPropertyOp23
 70
     1
102
RTVSPropertyOp24
 70
     1
102
RTVSPropertyOp25
 70
     1
102
RTVSPropertyOp26
 70
     1
102
RTVSPropertyOp27
 70
     1
102
RTVSPropertyOp28
 70
     1
102
RTVSPropertyOp29
 70
     1
102
RTVSPropertyOp30
 70
     1
102
RTVSPropertyOp31
 70
     1
102
RTVSPropertyOp32
 70
     1
  0
XRECORD
  5
1DB
102
{ACAD_REACTORS
330
1DA
102
}
330
1DA
100
AcDbXrecord
280
     1
102
RTVSPropertyOp0
 70
     1
102
RTVSPropertyOp1
 70
     1
102
RTVSPropertyOp2
 70
     1
102
RTVSPropertyOp3
 70
     1
102
RTVSPropertyOp4
 70
     1
102
RTVSPropertyOp5
 70
     1
102
RTVSPropertyOp6
 70
     1
102
RTVSPropertyOp7
 70
     1
102
RTVSPropertyOp8
 70
     1
102
RTVSPropertyOp9
 70
     1
102
RTVSPropertyOp10
 70
     1
102
RTVSPropertyOp11
 70
     1
102
RTVSPropertyOp12
 70
     1
102
RTVSPropertyOp13
 70
     1
102
RTVSPropertyOp14
 70
     1
102
RTVSPropertyOp15
 70
     1
102
RTVSPropertyOp16
 70
     1
102
RTVSPropertyOp17
 70
     1
102
RTVSPropertyOp18
 70
     1
102
RTVSPropertyOp19
 70
     1
102
RTVSPropertyOp20
 70
     1
102
RTVSPropertyOp21
 70
     1
102
RTVSPropertyOp22
 70
     1
102
RTVSPropertyOp23
 70
     1
102
RTVSPropertyOp24
 70
     1
102
RTVSPropertyOp25
 70
     1
102
RTVSPropertyOp26
 70
     1
102
RTVSPropertyOp27
 70
     1
102
RTVSPropertyOp28
 70
     1
102
RTVSPropertyOp29
 70
     1
102
RTVSPropertyOp30
 70
     1
102
RTVSPropertyOp31
 70
     1
102
RTVSPropertyOp32
 70
     1
  0
XRECORD
  5
1DD
102
{ACAD_REACTORS
330
1DC
102
}
330
1DC
100
AcDbXrecord
280
     1
102
RTVSPropertyOp0
 70
     1
102
RTVSPropertyOp1
 70
     1
102
RTVSPropertyOp2
 70
     1
102
RTVSPropertyOp3
 70
     1
102
RTVSPropertyOp4
 70
     1
102
RTVSPropertyOp5
 70
     1
102
RTVSPropertyOp6
 70
     1
102
RTVSPropertyOp7
 70
     1
102
RTVSPropertyOp8
 70
     1
102
RTVSPropertyOp9
 70
     1
102
RTVSPropertyOp10
 70
     1
102
RTVSPropertyOp11
 70
     1
102
RTVSPropertyOp12
 70
     1
102
RTVSPropertyOp13
 70
     1
102
RTVSPropertyOp14
 70
     1
102
RTVSPropertyOp15
 70
     1
102
RTVSPropertyOp16
 70
     1
102
RTVSPropertyOp17
 70
     1
102
RTVSPropertyOp18
 70
     1
102
RTVSPropertyOp19
 70
     1
102
RTVSPropertyOp20
 70
     1
102
RTVSPropertyOp21
 70
     1
102
RTVSPropertyOp22
 70
     1
102
RTVSPropertyOp23
 70
     1
102
RTVSPropertyOp24
 70
     1
102
RTVSPropertyOp25
 70
     1
102
RTVSPropertyOp26
 70
     1
102
RTVSPropertyOp27
 70
     1
102
RTVSPropertyOp28
 70
     1
102
RTVSPropertyOp29
 70
     1
102
RTVSPropertyOp30
 70
     1
102
RTVSPropertyOp31
 70
     1
102
RTVSPropertyOp32
 70
     1
  0
XRECORD
  5
1DF
102
{ACAD_REACTORS
330
1DE
102
}
330
1DE
100
AcDbXrecord
280
     1
102
RTVSPropertyOp0
 70
     1
102
RTVSPropertyOp1
 70
     1
102
RTVSPropertyOp2
 70
     1
102
RTVSPropertyOp3
 70
     1
102
RTVSPropertyOp4
 70
     1
102
RTVSPropertyOp5
 70
     1
102
RTVSPropertyOp6
 70
     1
102
RTVSPropertyOp7
 70
     1
102
RTVSPropertyOp8
 70
     1
102
RTVSPropertyOp9
 70
     1
102
RTVSPropertyOp10
 70
     1
102
RTVSPropertyOp11
 70
     1
102
RTVSPropertyOp12
 70
     1
102
RTVSPropertyOp13
 70
     1
102
RTVSPropertyOp14
 70
     1
102
RTVSPropertyOp15
 70
     1
102
RTVSPropertyOp16
 70
     1
102
RTVSPropertyOp17
 70
     1
102
RTVSPropertyOp18
 70
     1
102
RTVSPropertyOp19
 70
     1
102
RTVSPropertyOp20
 70
     1
102
RTVSPropertyOp21
 70
     1
102
RTVSPropertyOp22
 70
     1
102
RTVSPropertyOp23
 70
     1
102
RTVSPropertyOp24
 70
     1
102
RTVSPropertyOp25
 70
     1
102
RTVSPropertyOp26
 70
     1
102
RTVSPropertyOp27
 70
     1
102
RTVSPropertyOp28
 70
     1
102
RTVSPropertyOp29
 70
     1
102
RTVSPropertyOp30
 70
     1
102
RTVSPropertyOp31
 70
     1
102
RTVSPropertyOp32
 70
     1
  0
XRECORD
  5
1E1
102
{ACAD_REACTORS
330
1E0
102
}
330
1E0
100
AcDbXrecord
280
     1
102
RTVSPropertyOp0
 70
     1
102
RTVSPropertyOp1
 70
     1
102
RTVSPropertyOp2
 70
     1
102
RTVSPropertyOp3
 70
     1
102
RTVSPropertyOp4
 70
     1
102
RTVSPropertyOp5
 70
     1
102
RTVSPropertyOp6
 70
     1
102
RTVSPropertyOp7
 70
     1
102
RTVSPropertyOp8
 70
     1
102
RTVSPropertyOp9
 70
     1
102
RTVSPropertyOp10
 70
     1
102
RTVSPropertyOp11
 70
     1
102
RTVSPropertyOp12
 70
     1
102
RTVSPropertyOp13
 70
     1
102
RTVSPropertyOp14
 70
     1
102
RTVSPropertyOp15
 70
     1
102
RTVSPropertyOp16
 70
     1
102
RTVSPropertyOp17
 70
     1
102
RTVSPropertyOp18
 70
     1
102
RTVSPropertyOp19
 70
     1
102
RTVSPropertyOp20
 70
     1
102
RTVSPropertyOp21
 70
     1
102
RTVSPropertyOp22
 70
     1
102
RTVSPropertyOp23
 70
     1
102
RTVSPropertyOp24
 70
     1
102
RTVSPropertyOp25
 70
     1
102
RTVSPropertyOp26
 70
     1
102
RTVSPropertyOp27
 70
     1
102
RTVSPropertyOp28
 70
     1
102
RTVSPropertyOp29
 70
     1
102
RTVSPropertyOp30
 70
     1
102
RTVSPropertyOp31
 70
     1
102
RTVSPropertyOp32
 70
     1
  0
XRECORD
  5
1F5
102
{ACAD_REACTORS
330
1F4
102
}
330
1F4
100
AcDbXrecord
280
     1
102
RTVSPropertyOp0
 70
     1
102
RTVSPropertyOp1
 70
     1
102
RTVSPropertyOp2
 70
     1
102
RTVSPropertyOp3
 70
     1
102
RTVSPropertyOp4
 70
     1
102
RTVSPropertyOp5
 70
     1
102
RTVSPropertyOp6
 70
     1
102
RTVSPropertyOp7
 70
     1
102
RTVSPropertyOp8
 70
     1
102
RTVSPropertyOp9
 70
     1
102
RTVSPropertyOp10
 70
     1
102
RTVSPropertyOp11
 70
     1
102
RTVSPropertyOp12
 70
     1
102
RTVSPropertyOp13
 70
     1
102
RTVSPropertyOp14
 70
     1
102
RTVSPropertyOp15
 70
     1
102
RTVSPropertyOp16
 70
     1
102
RTVSPropertyOp17
 70
     1
102
RTVSPropertyOp18
 70
     1
102
RTVSPropertyOp19
 70
     1
102
RTVSPropertyOp20
 70
     1
102
RTVSPropertyOp21
 70
     1
102
RTVSPropertyOp22
 70
     1
102
RTVSPropertyOp23
 70
     1
102
RTVSPropertyOp24
 70
     1
102
RTVSPropertyOp25
 70
     1
102
RTVSPropertyOp26
 70
     1
102
RTVSPropertyOp27
 70
     1
102
RTVSPropertyOp28
 70
     1
102
RTVSPropertyOp29
 70
     1
102
RTVSPropertyOp30
 70
     1
102
RTVSPropertyOp31
 70
     1
102
RTVSPropertyOp32
 70
     1
  0
XRECORD
  5
1EB
102
{ACAD_REACTORS
330
1EA
102
}
330
1EA
100
AcDbXrecord
280
     1
102
RTVSPropertyOp0
 70
     1
102
RTVSPropertyOp1
 70
     1
102
RTVSPropertyOp2
 70
     1
102
RTVSPropertyOp3
 70
     1
102
RTVSPropertyOp4
 70
     1
102
RTVSPropertyOp5
 70
     1
102
RTVSPropertyOp6
 70
     1
102
RTVSPropertyOp7
 70
     1
102
RTVSPropertyOp8
 70
     1
102
RTVSPropertyOp9
 70
     1
102
RTVSPropertyOp10
 70
     1
102
RTVSPropertyOp11
 70
     1
102
RTVSPropertyOp12
 70
     1
102
RTVSPropertyOp13
 70
     1
102
RTVSPropertyOp14
 70
     1
102
RTVSPropertyOp15
 70
     1
102
RTVSPropertyOp16
 70
     1
102
RTVSPropertyOp17
 70
     1
102
RTVSPropertyOp18
 70
     1
102
RTVSPropertyOp19
 70
     1
102
RTVSPropertyOp20
 70
     1
102
RTVSPropertyOp21
 70
     1
102
RTVSPropertyOp22
 70
     1
102
RTVSPropertyOp23
 70
     1
102
RTVSPropertyOp24
 70
     1
102
RTVSPropertyOp25
 70
     1
102
RTVSPropertyOp26
 70
     1
102
RTVSPropertyOp27
 70
     1
102
RTVSPropertyOp28
 70
     1
102
RTVSPropertyOp29
 70
     1
102
RTVSPropertyOp30
 70
     1
102
RTVSPropertyOp31
 70
     1
102
RTVSPropertyOp32
 70
     1
  0
XRECORD
  5
1F3
102
{ACAD_REACTORS
330
1F2
102
}
330
1F2
100
AcDbXrecord
280
     1
102
RTVSPropertyOp0
 70
     1
102
RTVSPropertyOp1
 70
     1
102
RTVSPropertyOp2
 70
     1
102
RTVSPropertyOp3
 70
     1
102
RTVSPropertyOp4
 70
     1
102
RTVSPropertyOp5
 70
     1
102
RTVSPropertyOp6
 70
     1
102
RTVSPropertyOp7
 70
     1
102
RTVSPropertyOp8
 70
     1
102
RTVSPropertyOp9
 70
     1
102
RTVSPropertyOp10
 70
     1
102
RTVSPropertyOp11
 70
     1
102
RTVSPropertyOp12
 70
     1
102
RTVSPropertyOp13
 70
     1
102
RTVSPropertyOp14
 70
     1
102
RTVSPropertyOp15
 70
     1
102
RTVSPropertyOp16
 70
     1
102
RTVSPropertyOp17
 70
     1
102
RTVSPropertyOp18
 70
     1
102
RTVSPropertyOp19
 70
     1
102
RTVSPropertyOp20
 70
     1
102
RTVSPropertyOp21
 70
     1
102
RTVSPropertyOp22
 70
     1
102
RTVSPropertyOp23
 70
     1
102
RTVSPropertyOp24
 70
     1
102
RTVSPropertyOp25
 70
     1
102
RTVSPropertyOp26
 70
     1
102
RTVSPropertyOp27
 70
     1
102
RTVSPropertyOp28
 70
     1
102
RTVSPropertyOp29
 70
     1
102
RTVSPropertyOp30
 70
     1
102
RTVSPropertyOp31
 70
     1
102
RTVSPropertyOp32
 70
     1
  0
ENDSEC
  0
EOF
